[MINI-HD] Race to Witch Mountain (2009) ผจญภัยฝ่าหุบเขามรณะ [1080p] [พากย์ไทย 5.1 + เสียงอังกฤษ DTS] [บรรยายไทย + อังกฤษ] [เสียงไทย + ซับไทย] [OPENLOAD]

0

โหลดหนัง  Race to Witch Mountain (2009) ผจญภัยฝ่าหุบเขามรณะ

Race to Witch Mountain (2009) 1h 38min | Action, Adventure, Family | 13 March 2009 (USA) Summary: A Las Vegas cabbie enlists the help of a UFO expert to protect two siblings with paranormal powers from the clutches of an organization that wants to use the kids for their nefarious plans.
Countries: USALanguages: English

เรื่องย่อ Race to Witch Mountain (2009) ผจญภัยฝ่าหุบเขามรณะ

นานหลายปีแล้ว ที่มีคำเล่าลือเกี่ยวกับสถานที่ลึกลับใจกลางทะเลทรายเนวาดาที่ซึ่งปรากฏการณ์ที่ไม่อาจอธิบายได้และภาพแปลกประหลาดเกิดขึ้นบ่อยครั้งสถานที่แห่งนั้นถูกเรียกว่าหุบเขามรณะ และเมื่อแจ็ค บรูโน (ดเวย์น จอห์นสัน) คนขับแท็กซี่ในลาสเวกัส ได้รับผู้โดยสารสองวัยรุ่นที่มีพลังพิเศษเหนือธรรมชาติขึ้นรถ เขาก็ต้องเอาตัวเองเข้าไปพัวพันกับการผจญภัยที่ตัวเขาเองยังอธิบายไม่ได้ ด้วยซ้ำไปหลังจากที่ได้ร่วมมือกันแล้วแจ็คและผู้โดยสารวัยรุ่นของเขาก็ได้ค้นพบว่าโอกาสเดียวที่จะกอบกู้โลกใบนี้ ให้ได้อยู่ที่การไขปริศนาลึกลับของหุบเขามรณะ และแล้วการแข่งขันกับเวลาก็เริ่มต้นขึ้น

Complete name : [MINI-HD]_Race.to.Witch.Mountain.2009.1080p.BrRip.DTS.x264.One2loadup.com.mkv
Format : Matroska
Format version : Version 2
File size : 4.36 GiB
Duration : 1 h 38 min
Overall bit rate : 6 347 kb/s
Movie name : [MINI-HD]_Race.to.Witch.Mountain.2009.1080p.BrRip.DTS.x264.One2loadup.com
Encoded date : UTC 2012-10-08 07:26:37
Writing application : mkvmerge v5.8.0 (‘No Sleep / Pillow’) built on Sep 2 2012 15:37:04
Writing library : libebml v1.2.3 + libmatroska v1.3.0

Video
ID : 1
Format : AVC
Format/Info : Advanced Video Codec
Format profile : [email protected]
Format settings : CABAC / 4 Ref Frames
Format settings, CABAC : Yes
Format settings, ReFrames : 4 frames
Muxing mode : Header stripping
Codec ID : V_MPEG4/ISO/AVC
Duration : 1 h 38 min
Bit rate : 4 500 kb/s
Width : 1 920 pixels
Height : 800 pixels
Display aspect ratio : 2.40:1
Frame rate mode : Constant
Frame rate : 23.976 FPS
Color space : YUV
Chroma subsampling : 4:2:0
Bit depth : 8 bits
Scan type : Progressive
Bits/(Pixel*Frame) : 0.122
Stream size : 2.97 GiB (68%)
Title : [MINI-HD]_Race.to.Witch.Mountain.2009.1080p.BrRip.DTS.x264.One2loadup.com
Writing library : x264 core 112
Encoding settings : cabac=1 / ref=3 / deblock=1:0:0 / analyse=0x3:0x113 / me=hex / subme=7 / psy=1 / psy_rd=1.00:0.00 / mixed_ref=1 / me_range=16 / chroma_me=1 / trellis=1 / 8x8dct=1 / cqm=0 / deadzone=21,11 / fast_pskip=1 / chroma_qp_offset=-2 / threads=6 / sliced_threads=0 / nr=0 / decimate=1 / interlaced=0 / constrained_intra=0 / bframes=3 / b_pyramid=2 / b_adapt=2 / b_bias=0 / direct=1 / weightb=1 / open_gop=0 / weightp=2 / keyint=240 / keyint_min=23 / scenecut=40 / intra_refresh=0 / rc_lookahead=50 / rc=abr / mbtree=1 / bitrate=4500 / ratetol=1.0 / qcomp=0.60 / qpmin=3 / qpmax=51 / qpstep=4 / ip_ratio=1.40 / aq=1:1.00
Language : English
Default : Yes
Forced : No
Color range : Limited
Color primaries : BT.709
Transfer characteristics : BT.709
Matrix coefficients : BT.709

Audio #1
ID : 2
Format : DTS
Format/Info : Digital Theater Systems
Muxing mode : Header stripping
Codec ID : A_DTS
Duration : 1 h 38 min
Bit rate mode : Constant
Bit rate : 1 509 kb/s
Channel(s) : 6 channels
Channel layout : C L R Ls Rs LFE
Sampling rate : 48.0 kHz
Frame rate : 93.750 FPS (512 SPF)
Bit depth : 24 bits
Compression mode : Lossy
Stream size : 1.04 GiB (24%)
Language : English
Default : Yes
Forced : No

Audio #2
ID : 3
Format : AC-3
Format/Info : Audio Coding 3
Commercial name : Dolby Digital
Muxing mode : Header stripping
Codec ID : A_AC3
Duration : 1 h 38 min
Bit rate mode : Constant
Bit rate : 384 kb/s
Channel(s) : 6 channels
Channel layout : L R C LFE Ls Rs
Sampling rate : 48.0 kHz
Frame rate : 31.250 FPS (1536 SPF)
Bit depth : 16 bits
Compression mode : Lossy
Stream size : 270 MiB (6%)
Language : Thai
Service kind : Complete Main
Default : No
Forced : No

Text #1
ID : 4
Format : VobSub
Muxing mode : zlib
Codec ID : S_VOBSUB
Codec ID/Info : Picture based subtitle format used on DVDs
Language : English
Default : Yes
Forced : No

Text #2
ID : 5
Format : VobSub
Muxing mode : zlib
Codec ID : S_VOBSUB
Codec ID/Info : Picture based subtitle format used on DVDs
Language : Thai
Default : No
Forced : No

DOWNLOAD


PART01 |||| PART02 |||| PART03 |||| PART04 |||| PART05

PART01 |||| PART02 |||| PART03 |||| PART04 |||| PART05

PART01 |||| PART02 |||| PART03 |||| PART04 |||| PART05

PART01 |||| PART02 |||| PART03 |||| PART04 |||| PART05


Leave A Reply

Your email address will not be published.

%d bloggers like this: