[MINI-HD] Pitch Black (2000) ฝูงค้างคาวฉลามสยองจักรวาล ภาค 1 [720p] [พากย์ไทย 5.1 + เสียงอังกฤษ 5.1] [บรรยายไทย + อังกฤษ] [เสียงไทย + ซับไทย] [PANDAFILE]

4

โหลดหนัง Pitch Black (2000) ฝูงค้างคาวฉลามสยองจักรวาล ภาค 1

Pitch Black | February 18, 2000 (United States) Summary: A transport ship crashes and leaves its crew stranded on a desert planet inhabited by bloodthirsty creatures that come out during an eclipse.
Countries: United StatesLanguages: English, Arabic

เรื่องย่อ Pitch Black (2000) ฝูงค้างคาวฉลามสยองจักรวาล ภาค 1

เมื่อยานอวกาศลำหนึ่ง ซึ่งบรรทุกอาชญากรผู้โหดร้าย เกิดสูญเสียการควบคุม จนต้องร่อนลงฉุกเฉิน ณ ดาวดวงหนึ่งที่ไม่มีใครรู้จัก คาโรลิน ฟราย (Radha Mitchell) ลูกเรือเพียงคนเดียวที่มีชีวิตรอด พร้อมด้วยผู้โดยสารในยานลำดังกล่าว ซึ่งรวมทั้ง จอห์น (Cole Hauser) ตำรวจหนุ่มที่คุมตัวอาชญากรโหด ริดดิค (Vin Diesel) ต้องเผชิญหน้ากับภยันตรายบนดาวลึกลับ และจากฆาตกรร้ายผู้มีดวงตาพิเศษมองเห็นได้ในความมืด ที่บัดนี้เป็นอิสระแล้ว บนดวงดาวที่ปราศจากสิ่งมีชีวิต และรุ่มร้อนไปด้วยเปลวเพลิงจากดวงอาทิตย์ Riddick1 อย่างไรก็ตามความน่ากลัวไม่ได้สิ้นสุดลงเพียงแค่นั้น เพราะทันใดที่แสงอาทิตย์จางหายไปตามคาบ 22 ปี ความมืดก็เข้ามาปกคลุม พร้อมกับชีวิตในยามค่ำคืนที่เต็มไปด้วยภยันตราย ในสภาพแวดล้อมใหม่ที่ไม่น่าปลอดภัยเอาเสียเลย และแล้วสงครามที่แท้จริงก็เริ่มต้นขึ้น

Complete name : [MINI-HD]_1.Pitch.Black.2000.720p.AC3.x264.One2loadup.com.mkv
Format : Matroska
Format version : Version 2
File size : 2.59 GiB
Duration : 1 h 48 min
Overall bit rate : 3 419 kb/s
Movie name : [MINI-HD]_1.Pitch.Black.2000.720p.AC3.x264.One2loadup.com
Encoded date : UTC 2013-01-06 05:26:13
Writing application : mkvmerge v3.4.0 (‘Rapunzel’) built on May 15 2010 09:38:20
Writing library : libebml v0.8.0 + libmatroska v0.9.0

Video
ID : 1
Format : AVC
Format/Info : Advanced Video Codec
Format profile : [email protected]
Format settings : CABAC / 3 Ref Frames
Format settings, CABAC : Yes
Format settings, ReFrames : 3 frames
Codec ID : V_MPEG4/ISO/AVC
Duration : 1 h 48 min
Bit rate : 2 500 kb/s
Width : 1 280 pixels
Height : 544 pixels
Display aspect ratio : 2.35:1
Frame rate mode : Constant
Frame rate : 23.976 (24000/1001) FPS
Color space : YUV
Chroma subsampling : 4:2:0
Bit depth : 8 bits
Scan type : Progressive
Bits/(Pixel*Frame) : 0.150
Stream size : 1.86 GiB (72%)
Title : [MINI-HD]_1.Pitch.Black.2000.720p.AC3.x264.One2loadup.com
Writing library : x264 core 116 r2019M 9cc407d
Encoding settings : cabac=1 / ref=3 / deblock=1:0:0 / analyse=0x3:0x133 / me=hex / subme=7 / psy=1 / psy_rd=1.00:0.20 / mixed_ref=1 / me_range=16 / chroma_me=1 / trellis=1 / 8x8dct=1 / cqm=0 / deadzone=21,11 / fast_pskip=1 / chroma_qp_offset=-3 / threads=8 / sliced_threads=0 / nr=0 / decimate=1 / interlaced=0 / bluray_compat=0 / constrained_intra=0 / bframes=3 / b_pyramid=1 / b_adapt=2 / b_bias=0 / direct=3 / weightb=1 / open_gop=0 / weightp=2 / keyint=230 / keyint_min=23 / scenecut=40 / intra_refresh=0 / rc_lookahead=40 / rc=2pass / mbtree=1 / bitrate=2500 / ratetol=1.0 / qcomp=0.60 / qpmin=10 / qpmax=51 / qpstep=4 / cplxblur=20.0 / qblur=0.5 / ip_ratio=1.40 / aq=1:1.00
Language : English
Default : Yes
Forced : No

Audio #1
ID : 2
Format : AC-3
Format/Info : Audio Coding 3
Commercial name : Dolby Digital
Codec ID : A_AC3
Duration : 1 h 48 min
Bit rate mode : Constant
Bit rate : 448 kb/s
Channel(s) : 6 channels
Channel layout : L R C LFE Ls Rs
Sampling rate : 48.0 kHz
Frame rate : 31.250 FPS (1536 SPF)
Bit depth : 16 bits
Compression mode : Lossy
Stream size : 347 MiB (13%)
Title : Thai AC3 5.1 at 448 Kbps [DVD Master]
Language : Thai
Service kind : Complete Main
Default : Yes
Forced : No

Audio #2
ID : 3
Format : AC-3
Format/Info : Audio Coding 3
Commercial name : Dolby Digital
Codec ID : A_AC3
Duration : 1 h 48 min
Bit rate mode : Constant
Bit rate : 448 kb/s
Channel(s) : 6 channels
Channel layout : L R C LFE Ls Rs
Sampling rate : 48.0 kHz
Frame rate : 31.250 FPS (1536 SPF)
Bit depth : 16 bits
Compression mode : Lossy
Stream size : 347 MiB (13%)
Title : English AC3 5.1 at 448 Kbps
Language : English
Service kind : Complete Main
Default : No
Forced : No

Text #1
ID : 4
Format : VobSub
Muxing mode : zlib
Codec ID : S_VOBSUB
Codec ID/Info : Picture based subtitle format used on DVDs
Title : Thai 480p Under [BluRay Master]
Language : Thai
Default : Yes
Forced : No

Text #2
ID : 5
Format : VobSub
Muxing mode : zlib
Codec ID : S_VOBSUB
Codec ID/Info : Picture based subtitle format used on DVDs
Title : Thai 1080p Under [BluRay Master]
Language : Thai
Default : No
Forced : No

Text #3
ID : 6
Format : VobSub
Muxing mode : zlib
Codec ID : S_VOBSUB
Codec ID/Info : Picture based subtitle format used on DVDs
Title : Thai 1080p Original [BluRay Master]
Language : Thai
Default : No
Forced : No

Text #4
ID : 7
Format : VobSub
Muxing mode : zlib
Codec ID : S_VOBSUB
Codec ID/Info : Picture based subtitle format used on DVDs
Title : English 1080p Under [BluRay Master]
Language : English
Default : No
Forced : No

Text #5
ID : 8
Format : VobSub
Muxing mode : zlib
Codec ID : S_VOBSUB
Codec ID/Info : Picture based subtitle format used on DVDs
Title : English 1080p Original [BluRay Master]
Language : English
Default : No
Forced : No

DOWNLOAD


PART01 |||| PART02 |||| PART03

PART01 |||| PART02 |||| PART03

PART01 |||| PART02 |||| PART03

PART01 |||| PART02 |||| PART03

PART01 |||| PART02 |||| PART03


4 Comments
  1. Leo Beer
    Leo Beer says

    โหลดไม่ได้

    1. Admin
      Admin says

      แก้ไขเรียบร้อยฮ๊ะ

  2. Leo Beer
    Leo Beer says

    ไฟล์หาย

    1. Admin
      Admin says

      แก้ไขเรียบร้อยฮ๊ะ แนะนำแจ้งรอบเดียวพอฮ๊ะ

Leave A Reply

อีเมล์ของคุณจะไม่แสดงให้เห็น Your email address will not be published.

%d bloggers like this: