[Mini-HD] The Pianist (2002) สงคราม ความหวัง บัลลังก์ เกียรติยศ [1080p] [พากย์ไทย 2.0 + เสียงอังกฤษ 2.0] [บรรยายไทย + อังกฤษ] [ซับไทย + อังกฤษ] [PANDAFILE]

6

The Pianist (2002)

โหลดหนัง The Pianist (2002) สงคราม ความหวัง บัลลังก์ เกียรติยศ

The Pianist | March 28, 2003 (United States) Summary: A Polish Jewish musician struggles to survive the destruction of the Warsaw ghetto of World War II.
Countries: France, Poland, Germany, United KingdomLanguages: English, German, Russian

เรื่องย่อ The Pianist (2002) สงคราม ความหวัง บัลลังก์ เกียรติยศ

นักเปียโน วลาดิสลอว์ ซพิลแมน (เอเดรียน โบรดี้) มีงานเล่นเพลงที่สถานีวิทยุ ในกรุงวอร์ซอว์ตามปกติ แม้ว่าจะเป็นช่วงที่พวกทหารนาซี จะบุกเข้ามาโปแลนด์หลายสัปดาห์แล้ว เขาต้องเดินข้ามศพคน และซากม้าตายจำนวนมาก กว่าจะไปถึงสถานีวิทยุ จนกระทั่งบ่ายวันหนึ่ง ขณะที่เขากำลังเล่นเพลงของโชแปงอยู่นั้น ห่าระเบิดของฝ่ายศัตรู ก็ถล่มลงมาในเมืองเสียหายยับเยิน หลายวันต่อมา วอร์ซอว์ตกเป็นของนาซี แม้ว่าจะรู้ดี ถึงสิ่งที่จะเกิดตามมาภายหลังจากนี้ แต่เขาก็ยังเชื่อว่า ทุกอย่างจะต้องเรียบร้อย เมื่ออังกฤษกับฝรั่งเศสประกาศสงครามกับเยอรมัน

ทหารนาซีสั่งให้ชาวยิวจำนวน 360,000 คน ในกรุงวอร์ซอว์ ต้องสวมปลอกแขนระบุเชื้อชาติ และย้ายออกจากบ้าน ไปอยู่อย่างแออัดในเขตพื้นที่อันจำกัด ซพิลแมนก็ยังคงเชื่อว่า เขาสามารถรับมือกับสถานการณ์ได้ ตราบเท่าที่ปฏิบัติตามกฏ และมองโลกในแง่ดีต่อไป เขาได้ใบประกาศนียบัตร รับรองการทำงานเป็นนักเปียโน ในร้านอาหารเฉพาะชาวยิว และพยายามสร้างความมั่นใจให้กับทุกคนด้วยคำพูดว่า “ไม่ต้องห่วง อีกไม่นานทุกอย่างก็กลับคืนสู่ภาวะปกติ”

ต่อมาในเดือนสิงหาคมปี 1942 ครอบครัวของเขา ถูกส่งตัวขึ้นรถไฟไปยังค่ายกักกัน แต่เขาได้รับความช่วยเหลือช่วงนาทีสุดท้าย ให้อยู่ในกรุงวอร์ซอว์ต่อไป จากเพื่อนคนหนึ่งประจำกรมตำรวจ หลังจากนั้น ซพิลแมนก็ต้องหลบๆ ซ่อนๆ อยู่ในเมืองที่กำลังจะพังพินาศ ด้วยน้ำมือสงคราม ไม่มีอะไรจะกิน และป่วยเป็นโรคสารพัด เป็นเวลานานที่เขาต้องอาศัยอย่างแร้งแค้น อยู่ในบ้านร้างหลังหนึ่ง ก่อนต่อมาจะถูกค้นพบ โดยนายทหารเยอรมัน ร้อยเอก วิล (โธมัส เครทชมานน์)ผู้ยื่นข้อเสนอว่าจะนำอาหารมาให้ หากเขายอมเล่นเปียโนให้ฟังเป็นการตอบแทน…

Complete name : [MINI-HD]_The.Pianist.2002.1080p.BrRip.x264.One2loadup.com.mkv
Format : Matroska
Format version : Version 4 / Version 2
File size : 2.13 GiB
Duration : 2 h 28 min
Overall bit rate : 2 055 kb/s
Encoded date : UTC 2015-05-17 00:14:22
Writing application : mkvmerge v7.8.0 (‘River Man’) 64bit built on Mar 27 2015 16:31:37
Writing library : libebml v1.3.1 + libmatroska v1.4.2

Video
ID : 1
Format : AVC
Format/Info : Advanced Video Codec
Format profile : [email protected]
Format settings, CABAC : Yes
Format settings, RefFrames : 3 frames
Codec ID : V_MPEG4/ISO/AVC
Duration : 2 h 28 min
Bit rate : 1 831 kb/s
Width : 1 920 pixels
Height : 1 040 pixels
Display aspect ratio : 1.85:1
Frame rate mode : Constant
Frame rate : 23.976 (24000/1001) FPS
Color space : YUV
Chroma subsampling : 4:2:0
Bit depth : 8 bits
Scan type : Progressive
Bits/(Pixel*Frame) : 0.038
Stream size : 1.90 GiB (89%)
Writing library : x264 core 125 r2200 999b753
Encoding settings : cabac=1 / ref=4 / deblock=1:0:0 / analyse=0x3:0x133 / me=umh / subme=9 / psy=1 / psy_rd=1.00:0.00 / mixed_ref=1 / me_range=16 / chroma_me=1 / trellis=2 / 8x8dct=1 / cqm=0 / deadzone=21,11 / fast_pskip=1 / chroma_qp_offset=-2 / threads=12 / lookahead_threads=2 / sliced_threads=0 / nr=0 / decimate=1 / interlaced=0 / bluray_compat=0 / constrained_intra=0 / bframes=8 / b_pyramid=1 / b_adapt=2 / b_bias=2 / direct=3 / weightb=1 / open_gop=0 / weightp=2 / keyint=240 / keyint_min=23 / scenecut=40 / intra_refresh=0 / rc_lookahead=60 / rc=2pass / mbtree=1 / bitrate=1831 / ratetol=1.0 / qcomp=0.60 / qpmin=10 / qpmax=51 / qpstep=4 / cplxblur=20.0 / qblur=0.5 / ip_ratio=1.40 / aq=1:1.00
Default : Yes
Forced : No

Audio #1
ID : 2
Format : AAC
Format/Info : Advanced Audio Codec
Format profile : LC
Codec ID : A_AAC
Duration : 2 h 28 min
Bit rate : 92.0 kb/s
Channel(s) : 2 channels
Channel positions : Front: L R
Sampling rate : 48.0 kHz
Frame rate : 46.875 FPS (1024 SPF)
Compression mode : Lossy
Stream size : 97.9 MiB (4%)
Default : Yes
Forced : No

Audio #2
ID : 4
Format : AAC
Format/Info : Advanced Audio Codec
Format profile : LC
Codec ID : A_AAC
Duration : 2 h 28 min
Bit rate : 126 kb/s
Channel(s) : 2 channels
Channel positions : Front: L R
Sampling rate : 44.1 kHz
Frame rate : 43.066 FPS (1024 SPF)
Compression mode : Lossy
Stream size : 134 MiB (6%)
Language : Thai
Default : No
Forced : No

Text
ID : 3
Format : VobSub
Muxing mode : zlib
Codec ID : S_VOBSUB
Codec ID/Info : Picture based subtitle format used on DVDs
Duration : 2 h 20 min
Bit rate : 3 212 b/s
Count of elements : 1085
Stream size : 3.23 MiB (0%)
Language : Thai
Default : Yes
Forced : No

DOWNLOAD


PART01 |||| PART02 |||| PART03

PART01 |||| PART02 |||| PART03

PART01 |||| PART02 |||| PART03

PART01 |||| PART02 |||| PART03

PART01 |||| PART02 |||| PART03 


6 Comments
  1. แหม่มโพธิ์ดํา

    เรื่องเก่าๆที่แอดอัปลงกดเข้าลิ้ง Part เพื่อรับลิ้งโหลดได้ปกติ แต่หลังจากแอดเปลี่ยนหน้าเว็บใหม่แล้วอัปหนังเรื่องใหม่มาผมกดเข้า Part เพื่อรับลิ้งโหลดไม่ได้เลยครับ คล้ายๆติดบั๊คแบบเหมือนมีกระจกบังแล้วกดเข้าไม่ได้ ลองบลาวเซอร์อื่นๆทั้ง Chrome – firefox – microsoft edge – internet explorer ก็ยังเป็นเหมือนกันครับ

  2. แหม่มโพธิ์ดํา

    โหลดได้แล้วขอรับครับผม

  3. Kom Ruhanon
    Kom Ruhanon says

    Maga โหลดไม่ได้ครับ

    1. Admin
      Admin says

      แก้ไขเรียบร้อยฮ๊ะ

  4. Anubis Zeus
    Anubis Zeus says

    อัพ Zolofile ให้ทีครับ

    1. Admin
      Admin says

      แก้ไขเรียบร้อยฮ๊ะ

Leave A Reply

อีเมล์ของคุณจะไม่แสดงให้เห็น Your email address will not be published.

%d bloggers like this: