[MINI-HD] Pee Nak (2019) พี่นาค [1080p] [พากย์ไทย 2.0] [ไม่มีบรรยาย] [หนังไทย] [เสียงไทยมาสเตอร์] [OPENLOAD]

0

โหลดหนัง Pee Nak (2019) พี่นาค

Summary:

เรื่องย่อ Pee Nak (2019) พี่นาค

“ถ้ากูไม่ได้บวช ก็ไม่มีใครได้บวช” ด้วยแรงอาฆาตของพี่นาค ความสยองบทใหม่จึงเกิดขึ้นเมื่อวัดที่มีตำนานเฮี้ยนจนไม่เคยมีใครได้บวชเป็นพระ แต่กลับต้องมาเป็นมิชชั่นบวชล้างซวยให้กับ โหน่ง หนุ่มหล่อวัยเบญจเพส กับสองเพื่อนตุ๊ด เฟิร์ส คุณหนูรักสะอาดที่หวังเคลมโหน่งมาตั้งแต่ไหนแต่ไร และบอลลูน เจ้าแม่ขายของออนไลน์ขาวีน ความฮาเกิดเมื่อตุ๊ดต้องมาเจออาถรรพ์ แต่พอจะเข้าเกียร์ถอยหลังก็ทำไม่ได้ มาร่วมลุ้นมิชชั่นบวชพระที่ฮาปนสยองได้ใน #พี่นาค!!

Complete name : [MINI-HD]_Pee.Nak.2019.1080p.Web-DL.AAC.THM.One2loadup.com.mkv
Format : Matroska
Format version : Version 4
File size : 3.22 GiB
Duration : 1 h 48 min
Overall bit rate : 4 229 kb/s
Movie name : [MINI-HD]_Pee.Nak.2019.1080p.Web-DL.AAC.THM.One2loadup.com
Encoded date : UTC 2019-09-01 15:28:23
Writing application : mkvmerge v36.0.0 (‘Is That Jazz?’) 64-bit
Writing library : libebml v1.3.9 + libmatroska v1.5.2

Video
ID : 1
Format : AVC
Format/Info : Advanced Video Codec
Format profile : [email protected]
Format settings : CABAC / 2 Ref Frames
Format settings, CABAC : Yes
Format settings, ReFrames : 2 frames
Format settings, GOP : M=3, N=30
Muxing mode : Container [email protected]
Codec ID : V_MPEG4/ISO/AVC
Duration : 1 h 48 min
Bit rate : 4 035 kb/s
Width : 1 920 pixels
Height : 808 pixels
Display aspect ratio : 2.40:1
Frame rate mode : Constant
Frame rate : 24.000 FPS
Color space : YUV
Chroma subsampling : 4:2:0
Bit depth : 8 bits
Scan type : Progressive
Bits/(Pixel*Frame) : 0.108
Stream size : 3.07 GiB (95%)
Language : Thai
Default : Yes
Forced : No

Audio
ID : 2
Format : AAC LC
Format/Info : Advanced Audio Codec Low Complexity
Codec ID : A_AAC-2
Duration : 1 h 48 min
Bit rate : 192 kb/s
Channel(s) : 2 channels
Channel layout : L R
Sampling rate : 44.1 kHz
Frame rate : 43.066 FPS (1024 SPF)
Compression mode : Lossy
Stream size : 150 MiB (5%)
Language : Thai
Default : Yes
Forced : No

DOWNLOAD


PART01 |||| PART02 |||| PART03 |||| PART04

PART01 |||| PART02 |||| PART03 |||| PART04

PART01 |||| PART02 |||| PART03 |||| PART04

PART01 |||| PART02 |||| PART03 |||| PART04


Leave A Reply

Your email address will not be published.

%d bloggers like this: