[MINI-HD] Oh My Ghost 6 (2018) หอแต๋วแตก แหกต่อไม่รอแล้วนะ [720p] [พากย์ไทย 2.0] [WEB-DL] [ไม่มีบรรยาย] [หนังไทย] [เสียงไทยมาสเตอร์] [OPENLOAD]

0

โหลดหนัง Oh My Ghost 6 (2018) หอแต๋วแตก แหกต่อไม่รอแล้วนะ

เรื่องย่อ Oh My Ghost 6 (2018) หอแต๋วแตก แหกต่อไม่รอแล้วนะ

หลังจากเหตุการณ์ในแหกนะคะ 3 ปี ชีวิตอันแสนสงบสุขของเจ๊แต๋ว และ อาโคย ลูกชายที่ผ่านร้อนผ่านหนาวมาร่วมกันกับ เจ๊มดดำ และ แพนเค้ก ผีสาวร่างยักษ์ปากร้ายใจดี เผชิญหน้ากับเรื่องราววุ่นๆ ของวิญญาณมาเป็นเวลานาน จนเมื่อเจ๊การ์ตูนได้ดีมีสามีฝรั่งแล้วย้ายไปอยู่เมืองนอก ก็ถึงคราวที่คนที่เหลือๆ ต้องพบกับความวุ่นวายอีกครั้ง เมื่อเจ๊พยูน อริเก่าที่โดนแพนด้า น้องสาวสุดหงิมของแพนเค้ก จับเข้าคุกไปในคดีฆาตกรรมคนในหอเมื่อหลายปีก่อน ตอนนี้ได้พ้นโทษออกมาจากคุกพร้อมกับเพื่อนใหม่อย่าง ขนเพชร ลูกเบ๊ของเธออีกที การพบกันครั้งนี้เต็มไปด้วยความบาดหมาง ก่อนที่ทุกอย่างจะชะงัก เมื่อมีชายชาวอินเดียปริศนาได้มาแจ้งว่า พวกเขาเป็นผู้โชคดีที่ได้รับคฤหาสน์หลังงาม ทุกคนตื่นเต้นมากโดยไม่รู้ว่า เบื้องหลังของคฤหาสน์มีเรื่องที่น่าสะพรึงซ่อนอยู่ ในขณะเดียวกัน แพนเค้ก ก็กำลังจะได้ไปเกิดใหม่ เว้นเสียแต่จะมีเงื่อนไขที่เธอต้องผ่านไปให้ได้ โดยมีสองหนุ่มยมทูตคอยเป็นผู้คุมให้ เรื่องราวแหกต่อไม่รอแล้วนะของพวกเขาจึงเริ่มขึ้น… โดยภาคนี้ถึอว่าจะเป็นบทสรุปหนังหอที่นานกว่า 11 ปี!!

Complete name : [MINI-HD]_Oh.My.Ghost.6.720p.WEBRip.AC3.x264.THM2.0.One2loadup.com.mkv
Format : Matroska
Format version : Version 4
File size : 1.95 GiB
Duration : 1 h 43 min
Overall bit rate : 2 693 kb/s
Encoded date : UTC 2019-08-28 06:30:14
Writing application : mkvmerge v25.0.0 (‘Prog Noir’) 64-bit
Writing library : libebml v1.3.6 + libmatroska v1.4.9

Video
ID : 1
Format : AVC
Format/Info : Advanced Video Codec
Format profile : [email protected]
Format settings : CABAC / 4 Ref Frames
Format settings, CABAC : Yes
Format settings, ReFrames : 4 frames
Codec ID : V_MPEG4/ISO/AVC
Duration : 1 h 43 min
Bit rate : 2 500 kb/s
Width : 1 280 pixels
Height : 536 pixels
Display aspect ratio : 2.40:1
Frame rate mode : Variable
Frame rate : 23.818 FPS
Color space : YUV
Chroma subsampling : 4:2:0
Bit depth : 8 bits
Scan type : Progressive
Bits/(Pixel*Frame) : 0.153
Stream size : 1.81 GiB (93%)
Title : [MINI-HD]_Oh.My.Ghost.6.720p.WEBRip.AC3.x264.THM2.0.One2loadup.com
Writing library : x264 core 155 r2901 7d0ff22
Encoding settings : cabac=1 / ref=2 / deblock=1:0:0 / analyse=0x1:0x111 / me=hex / subme=6 / psy=1 / psy_rd=1.00:0.00 / mixed_ref=1 / me_range=16 / chroma_me=1 / trellis=1 / 8x8dct=0 / cqm=0 / deadzone=21,11 / fast_pskip=1 / chroma_qp_offset=-2 / threads=6 / lookahead_threads=1 / sliced_threads=0 / nr=0 / decimate=1 / interlaced=0 / bluray_compat=0 / constrained_intra=0 / bframes=3 / b_pyramid=2 / b_adapt=1 / b_bias=0 / direct=1 / weightb=1 / open_gop=0 / weightp=1 / keyint=240 / keyint_min=24 / scenecut=40 / intra_refresh=0 / rc_lookahead=30 / rc=2pass / mbtree=1 / bitrate=2500 / ratetol=1.0 / qcomp=0.60 / qpmin=0 / qpmax=69 / qpstep=4 / cplxblur=20.0 / qblur=0.5 / vbv_maxrate=20000 / vbv_bufsize=25000 / nal_hrd=none / filler=0 / ip_ratio=1.40 / aq=1:1.00
Default : Yes
Forced : No
Color range : Limited
Color primaries : BT.709
Transfer characteristics : BT.709
Matrix coefficients : BT.709

Audio
ID : 2
Format : AC-3
Format/Info : Audio Coding 3
Commercial name : Dolby Digital
Codec ID : A_AC3
Duration : 1 h 43 min
Bit rate mode : Constant
Bit rate : 192 kb/s
Channel(s) : 2 channels
Channel layout : L R
Sampling rate : 48.0 kHz
Frame rate : 31.250 FPS (1536 SPF)
Bit depth : 16 bits
Compression mode : Lossy
Delay relative to video : -5 ms
Stream size : 142 MiB (7%)
Title : Thai Master 2.0 @192 Kbps
Language : Thai
Service kind : Complete Main
Default : Yes
Forced : No

DOWNLOAD


PART01 |||| PART02 |||| PART03

PART01 |||| PART02 |||| PART03

PART01 |||| PART02 |||| PART03

PART01 |||| PART02 |||| PART03


Leave A Reply

Your email address will not be published.

%d bloggers like this: