[MINI-HD] New Kung Fu Cult Master 1 (2022) ดาบมังกรหยก ตอน ประมุขพรรคมาร ภาค 1 [1080p] [พากย์ไทย 2.0 + เสียงจีน 5.1] [บรรยายไทย + จีน(ฝัง)] [เสียงไทยมาสเตอร์ + ซับไทย] [USERLOAD]

0

โหลดหนัง New Kung Fu Cult Master 1 (2022) ดาบมังกรหยก ตอน ประมุขพรรคมาร ภาค 1

New Kung Fu Cult Master | January 28, 2022 (Singapore) Summary: Wudang master Zhang Cuishan who lives in the Shangri-La Ice and Fire Island with his family, away from the dissension and bloodshed, ambushed and leaving his young son Zhang Wuji orphaned.
Countries: Hong KongLanguages: Cantonese

เรื่องย่อ New Kung Fu Cult Master 1 (2022) ดาบมังกรหยก ตอน ประมุขพรรคมาร ภาค 1

เตียบ่อกี้ (หลินฟง) บุตรชายของ เตียชุ่ยซัว (กู่เทียนเล่อ) จอมยุทธ์แห่งบู๊ตึ๊งและ ฮึงซู่ซู่ (จูเฉินลี่) ลูกสาวประมุขพรรคอินทรีฟ้า ถูกเลี้ยงดูและเติบโตบนเกาะน้ำแข็งอัคคีโดยมี เจี่ยซุ่น (สวีจิ่นเจียง) ผู้ครองดาบฆ่ามังกรเป็นพ่อบุญธรรม เมื่อตอนที่อายุครบ 15 ปี เตียชุ่ยซัวได้พาเตียบ่อกี้และฮึงซู่ซู่เดินทางกลับม ายังบู๊ตึ๊งเพื่อพบกับ เตียซำฮง (เจินจื่อตัน) อาจารย์เจ้าสำนัก แต่กลับถูกชาวยุทธ์บีบบังคับให้บอกที่อยู่ของเจี่ยซุ ่น ทำให้เตียบ่อกี้ต้องสูญเสียทั้งบิดาและมารดา 17 ปีต่อมา เตียบ่อกี้ที่บัดนี้บรรลุเคล็ดวิชาเก้าเอี๊ยงได้เดิน ทางกลับตงง้วนเพื่อทวงหนี้แค้นให้บิดามารดา ท่ามกลางศึกแห่งการต่อสู้ในยุทธภพ เตียบ่อกี้ก็ได้พบกับ เตี๋ยเมี่ยง (เหวินหย่งซาน) ธิดาแห่งอ๋องมองโกล จิวจี้เยี้ยก (ชิวอี้หนง) ลูกศิษย์สำนักง้อไบ๊ และเสี่ยวเจียว (อวิ๋นเชียนเชียน) สาวใช้แห่งพรรคเม้งก่า

Complete name : [MINI-HD]_New.Kung.Fu.Cult.Master.1.2022.1080p.WEB-DL.EAC3.x264.THM.One2loadup.com.mkv
Format : Matroska
Format version : Version 4
File size : 4.86 GiB
Duration : 1 h 54 min
Overall bit rate : 6 096 kb/s
Movie name : [MINI-HD]_New.Kung.Fu.Cult.Master.1.2022.1080p.WEB-DL.EAC3.x264.THM.One2loadup.com
Encoded date : UTC 2022-03-14 01:41:39 / UTC 2022-03-13T04:30:44Z
Writing application : mkvmerge v64.0.0 (‘Willows’) 64-bit
Writing library : libebml v1.4.2 + libmatroska v1.6.4 / Lavf57.7.2

Video
ID : 1
Format : AVC
Format/Info : Advanced Video Codec
Format profile : [email protected]
Format settings : CABAC / 4 Ref Frames
Format settings, CABAC : Yes
Format settings, Reference : 4 frames
Codec ID : V_MPEG4/ISO/AVC
Duration : 1 h 53 min
Bit rate : 4 818 kb/s
Width : 1 920 pixels
Height : 1 080 pixels
Display aspect ratio : 2.40:1
Frame rate mode : Constant
Frame rate : 23.976 (24000/1001) FPS
Color space : YUV
Chroma subsampling : 4:2:0
Bit depth : 8 bits
Scan type : Progressive
Bits/(Pixel*Frame) : 0.097
Stream size : 3.83 GiB (79%)
Title : [MINI-HD]_New.Kung.Fu.Cult.Master.1.2022.1080p.WEB-DL.EAC3.x264.THM.One2loadup.com
Writing library : x264 core 155 r2901 7d0ff22
Encoding settings : cabac=1 / ref=2 / deblock=1:0:0 / analyse=0x1:0x111 / me=hex / subme=6 / psy=1 / psy_rd=1.00:0.00 / mixed_ref=1 / me_range=16 / chroma_me=1 / trellis=1 / 8x8dct=0 / cqm=0 / deadzone=21,11 / fast_pskip=1 / chroma_qp_offset=-2 / threads=18 / lookahead_threads=3 / sliced_threads=0 / nr=0 / decimate=1 / interlaced=0 / bluray_compat=0 / constrained_intra=0 / bframes=3 / b_pyramid=2 / b_adapt=1 / b_bias=0 / direct=1 / weightb=1 / open_gop=0 / weightp=1 / keyint=240 / keyint_min=24 / scenecut=40 / intra_refresh=0 / rc_lookahead=30 / rc=crf / mbtree=1 / crf=22.0 / qcomp=0.60 / qpmin=0 / qpmax=69 / qpstep=4 / vbv_maxrate=20000 / vbv_bufsize=25000 / crf_max=0.0 / nal_hrd=none / filler=0 / ip_ratio=1.40 / aq=1:1.00
Default : Yes
Forced : No
Color range : Limited
Color primaries : BT.709
Transfer characteristics : BT.709
Matrix coefficients : BT.709

Audio #1
ID : 2
Format : AC-3
Format/Info : Audio Coding 3
Commercial name : Dolby Digital
Codec ID : A_AC3
Duration : 1 h 53 min
Bit rate mode : Constant
Bit rate : 640 kb/s
Channel(s) : 2 channels
Channel layout : L R
Sampling rate : 48.0 kHz
Frame rate : 31.250 FPS (1536 SPF)
Compression mode : Lossy
Stream size : 521 MiB (10%)
Title : [Thai-AC-3]
Language : Thai
Service kind : Complete Main
Default : Yes
Forced : No

Audio #2
ID : 3
Format : E-AC-3
Format/Info : Enhanced AC-3
Commercial name : Dolby Digital Plus
Codec ID : A_EAC3
Duration : 1 h 54 min
Bit rate mode : Constant
Bit rate : 384 kb/s
Channel(s) : 6 channels
Channel layout : L R C LFE Ls Rs
Sampling rate : 48.0 kHz
Frame rate : 31.250 FPS (1536 SPF)
Compression mode : Lossy
Delay relative to video : 28 ms
Stream size : 313 MiB (6%)
Title : [Cantonese] DDP 5.1
Language : Chinese
Service kind : Complete Main
Default : No
Forced : No

Audio #3
ID : 4
Format : E-AC-3
Format/Info : Enhanced AC-3
Commercial name : Dolby Digital Plus
Codec ID : A_EAC3
Duration : 1 h 54 min
Bit rate mode : Constant
Bit rate : 256 kb/s
Channel(s) : 2 channels
Channel layout : L R
Sampling rate : 48.0 kHz
Frame rate : 31.250 FPS (1536 SPF)
Compression mode : Lossy
Delay relative to video : 28 ms
Stream size : 209 MiB (4%)
Title : [Mandarin] DDP 2.0
Language : Chinese
Service kind : Complete Main
Default : No
Forced : No

Text #1
ID : 5
Format : VobSub
Muxing mode : zlib
Codec ID : S_VOBSUB
Codec ID/Info : Picture based subtitle format used on DVDs
Duration : 1 h 46 min
Bit rate : 12.1 kb/s
Count of elements : 1050
Stream size : 9.22 MiB (0%)
Title : [Thai VobSub white]
Language : Thai
Default : Yes
Forced : No

Text #2
ID : 6
Format : VobSub
Muxing mode : zlib
Codec ID : S_VOBSUB
Codec ID/Info : Picture based subtitle format used on DVDs
Duration : 1 h 46 min
Bit rate : 12.1 kb/s
Count of elements : 1050
Stream size : 9.22 MiB (0%)
Title : [Thai VobSub Yellow]
Language : Thai
Default : No
Forced : No

DOWNLOAD


PART01 |||| PART02 |||| PART03 |||| PART04 |||| PART05 |||| PART06

PART01 |||| PART02 |||| PART03 |||| PART04 |||| PART05 |||| PART06

PART01 |||| PART02 |||| PART03 |||| PART04 |||| PART05 |||| PART06

PART01 |||| PART02 |||| PART03 |||| PART04 |||| PART05 |||| PART06

PART01 |||| PART02 |||| PART03 |||| PART04 |||| PART05 |||| PART06


Leave A Reply

อีเมล์ของคุณจะไม่แสดงให้เห็น Your email address will not be published.

%d bloggers like this: