[MINI-HD] Mandy (2018) ปีศาจเอาเมียผมไป [1080p] [พากย์ไทย 2.0 + เสียงอังกฤษ 5.1] [บรรยายไทย + อังกฤษ] [เสียงไทย + ซับไทย] [DOSYAUPLOAD]

0

โหลดหนัง Mandy (2018) ปีศาจเอาเมียผมไป

Mandy (2018) 121min | Action, Horror, Mystery | 14 September 2018 (USA) Summary: The enchanted lives of a couple in a secluded forest are brutally shattered by a nightmarish hippie cult and their demon-biker henchmen, propelling a man into a spiraling, surreal rampage of vengeance.
Countries: UK, Belgium, France, USALanguages: English

เรื่องย่อ Mandy (2018) ปีศาจเอาเมียผมไป

**พากย์ไทยอาจไม่ตรงบางช่วงเนื่องจากเสียงไทยสดุดเป็นช่วงๆ เลยใส่แบบมีเสียงอังกฤษแทรกบ้าง

คือหนังสยองขวัญเรื่องล่าสุด สายดาร์กแบบสุดๆที่นักวิจารณ์หนังหลายท่านต่างเชื่อว ่ามันจะทำให้ดาราชาย-พระเอกวัยเก๋าอย่าง Nicolas Cage จุติได้อีกครั้งในวงการ!

หนังบอกเล่าเรื่องราวในปี ค.ศ. 1983 กับชายที่ชื่อว่า Red Miller (นำแสดงโดย Nicolas Cage) ช่างตัดไม้กลางป่าลึกของบริษัทยักษ์ใหญ่แห่งหนึ่งกับภรรยายังสาว Mandy Bloom (รับบทโดย Andrea Riseborough) ศิลปินสาวผู้ชื่นชอบการวาดภาพอ่านหนังสือสร้างและเสพเรื่องราวในจินตนาการสุดเพ้อฝันต่างๆร่วมกับสามีสุดเลิฟของนางคนทั้งคู่ตกลงปลงใจว่าจะใช้ชีวิตที่เหลือร่วมกันจึงไปปลูกบ้านเอาไว้หลังหนึ่งกลางป่าลึกกลางวันสามีออกไปทำงานตัดไม้ในป่าที่ลึกเข้าไปอีก ส่วนศรีภรรยาก็เปิดร้านชำเล็กๆข้างถนนสำหรับบริการนักท่องเที่ยวที่ผ่านเข้ามาแวะชมความงามและธรรมชาติอันบริสุทธิ์ของป่าลึก แต่ภรรยาและตัวเขาต้องพบกับเรื่องราวสุดเลวร้ายยิ่งกว่าที่จะจินตนาการทำให้เขาต้องแก้แค้นเรื่องราวจะเป็นยังไงไปชมเอาเอง!!!

Complete name : [MINI-HD]_Mandy.2018.1080p.WEB-DL.AC3.x264.One2loadup.com.mkv
Format : Matroska
Format version : Version 4
File size : 4.44 GiB
Duration : 2 h 1 min
Overall bit rate : 5 243 kb/s
Movie name : [MINI-HD]_Mandy.2018.1080p.WEB-DL.AC3.x264.One2loadup.com
Encoded date : UTC 2021-04-07 18:24:57
Writing application : mkvmerge v55.0.0 (‘Waiting For Space’) 64-bit
Writing library : libebml v1.4.2 + libmatroska v1.6.4

Video
ID : 1
Format : AVC
Format/Info : Advanced Video Codec
Format profile : [email protected]
Format settings : CABAC / 5 Ref Frames
Format settings, CABAC : Yes
Format settings, Reference : 5 frames
Codec ID : V_MPEG4/ISO/AVC
Duration : 2 h 1 min
Bit rate : 4 664 kb/s
Width : 1 912 pixels
Height : 800 pixels
Display aspect ratio : 2.40:1
Frame rate mode : Constant
Frame rate : 23.976 (23976/1000) FPS
Color space : YUV
Chroma subsampling : 4:2:0
Bit depth : 8 bits
Scan type : Progressive
Bits/(Pixel*Frame) : 0.127
Stream size : 3.95 GiB (89%)
Title : [MINI-HD]_Mandy.2018.1080p.WEB-DL.AC3.x264.One2loadup.com
Language : English
Default : Yes
Forced : No
Color range : Limited
Color primaries : BT.709
Transfer characteristics : BT.709
Matrix coefficients : BT.709

Audio #1
ID : 2
Format : AC-3
Format/Info : Audio Coding 3
Commercial name : Dolby Digital
Codec ID : A_AC3
Duration : 2 h 1 min
Bit rate mode : Constant
Bit rate : 384 kb/s
Channel(s) : 6 channels
Channel layout : L R C LFE Ls Rs
Sampling rate : 48.0 kHz
Frame rate : 31.250 FPS (1536 SPF)
Compression mode : Lossy
Delay relative to video : -42 ms
Stream size : 333 MiB (7%)
Title : English 5.1
Language : English
Service kind : Complete Main
Default : No
Forced : No

Audio #2
ID : 3
Format : AAC LC
Format/Info : Advanced Audio Codec Low Complexity
Codec ID : A_AAC-2
Duration : 2 h 1 min
Bit rate : 192 kb/s
Channel(s) : 2 channels
Channel layout : L R
Sampling rate : 44.1 kHz
Frame rate : 43.066 FPS (1024 SPF)
Compression mode : Lossy
Delay relative to video : -42 ms
Stream size : 166 MiB (4%)
Title : Thai Master 2.0 By One2loadup.com
Language : Thai
Default : Yes
Forced : Yes

Text #1
ID : 4
Format : VobSub
Muxing mode : zlib
Codec ID : S_VOBSUB
Codec ID/Info : Picture based subtitle format used on DVDs
Duration : 1 h 48 min
Bit rate : 2 661 b/s
Count of elements : 501
Stream size : 2.07 MiB (0%)
Title : Thai.Vob
Language : Thai
Default : Yes
Forced : No

Text #2
ID : 5
Format : UTF-8
Codec ID : S_TEXT/UTF8
Codec ID/Info : UTF-8 Plain Text
Duration : 1 h 49 min
Bit rate : 16 b/s
Count of elements : 523
Stream size : 12.9 KiB (0%)
Title : Eng.SRT
Language : English
Default : No
Forced : No

Menu
00:00:00.000 : en:1
00:09:53.885 : en:2
00:21:18.611 : en:3
00:28:19.949 : en:4
00:41:26.485 : en:5
00:51:09.067 : en:6
01:00:52.483 : en:7
01:09:06.351 : en:8
01:21:15.038 : en:9
01:30:52.657 : en:10
01:40:38.034 : en:11
01:47:52.134 : en:12
01:57:14.029 : en:13

DOWNLOAD


PART01 |||| PART02 |||| PART03 |||| PART04 |||| PART05

PART01 |||| PART02 |||| PART03 |||| PART04 |||| PART05

PART01 |||| PART02 |||| PART03 |||| PART04 |||| PART05

PART01 |||| PART02 |||| PART03 |||| PART04 |||| PART05

PART01 |||| PART02 |||| PART03 |||| PART04 |||| PART05


Leave A Reply

Your email address will not be published.

%d bloggers like this: