[MINI-HD] Madagascar (2005) มาดากัสการ์ ภาค 1 [1080p] [พากย์ไทย 5.1 + เสียงอังกฤษ 5.1] [บรรยายไทย + อังกฤษ] [เสียงไทย + ซับไทย] [PANDAFILE]

2

Madagascar (2005) มาดากัสการ์ 1

โหลดหนัง Madagascar (2005) มาดากัสการ์ 1 

Madagascar | May 27, 2005 (United States) Summary: A group of animals who have spent all their life in a New York zoo end up in the jungles of Madagascar, and must adjust to living in the wild.
Countries: United StatesLanguages: English, Portuguese, Spanish, German, French, American Sign Language

เรื่องย่อ Madagascar (2005) มาดากัสการ์ 1

เจ้าสิงโต อเล็กซ์ ราชาแห่งป่ากลางเมือง ในสวนสัตว์เซ็นทรัลปาร์ก กับเพื่อนซี้ เจ้าม้าลาย มาร์ตี้ เจ้ายีราฟเมลแมนและ.นางฮิปโปกลอเรีย ใช้ชีวิตอยู่ในกรงขังอันสุขสำราญเพียบพร้อมไปด้วยอาหารรสเลิศด้วยความอยากรู้อยากเห็น มาร์ตี้หลบหนีออกมาท่องโลก พวกเพื่อน ๆ ต้องแหกกรงออกจากสวนสัตว์เพื่อตามหา แต่พวกเขาถูกยิงด้วยลูกดอก ถูกจับเข้ากรงและถูกส่งลงเรือ มุ่งหน้าไปยังแอฟริกาโดยมนุษย์ผู้หวังดีให้พวกมันได้เป็นอิสระแต่เกิดอุบัติเหตุระหว่างเดินทาง แก๊งสัตว์เพื่อนซี้ทั้งสี่พบว่า ตัวเองติดอยู่ริมหาดบนเกาะมาดากัสการ์ และต้องคิดหาทางเอาตัวรอดกลางป่า พร้อมกับค้นพบความหมายที่แท้จริงของคำว่า “นี่แหละ เจ้าป่า”

Complete name : [MINI-HD]_Madagascar.2005.1080p.AC3.x264.One2loadup.com.mkv
Format : Matroska
Format version : Version 4 / Version 2
File size : 4.30 GiB
Duration : 1 h 25 min
Overall bit rate : 7 164 kb/s
Encoded date : UTC 2017-03-14 03:55:01 / UTC 2017-03-14T01:21:51Z
Writing application : mkvmerge v8.3.0 (‘Over the Horizon’) 64bit
Writing library : libebml v1.3.1 + libmatroska v1.4.2 / Lavf55.12.0

Video
ID : 1
Format : AVC
Format/Info : Advanced Video Codec
Format profile : [email protected]
Format settings, CABAC : Yes
Format settings, RefFrames : 4 frames
Codec ID : V_MPEG4/ISO/AVC
Duration : 1 h 25 min
Bit rate : 5 101 kb/s
Width : 1 920 pixels
Height : 1 080 pixels
Display aspect ratio : 16:9
Frame rate mode : Constant
Frame rate : 23.976 (24000/1001) FPS
Color space : YUV
Chroma subsampling : 4:2:0
Bit depth : 8 bits
Scan type : Progressive
Bits/(Pixel*Frame) : 0.103
Stream size : 3.06 GiB (71%)
Writing library : x264 core 142 r2479 dd79a61
Encoding settings : cabac=1 / ref=1 / deblock=1:0:0 / analyse=0x1:0x111 / me=hex / subme=2 / psy=1 / psy_rd=1.00:0.00 / mixed_ref=0 / me_range=16 / chroma_me=1 / trellis=0 / 8x8dct=0 / cqm=0 / deadzone=21,11 / fast_pskip=1 / chroma_qp_offset=0 / threads=12 / lookahead_threads=4 / sliced_threads=0 / nr=0 / decimate=1 / interlaced=0 / bluray_compat=0 / constrained_intra=0 / bframes=3 / b_pyramid=2 / b_adapt=1 / b_bias=0 / direct=1 / weightb=1 / open_gop=0 / weightp=1 / keyint=240 / keyint_min=24 / scenecut=40 / intra_refresh=0 / rc_lookahead=10 / rc=crf / mbtree=1 / crf=20.0 / qcomp=0.60 / qpmin=0 / qpmax=69 / qpstep=4 / vbv_maxrate=20000 / vbv_bufsize=25000 / crf_max=0.0 / nal_hrd=none / filler=0 / ip_ratio=1.40 / aq=1:1.00
Language : Thai
Default : Yes
Forced : Yes
Color range : Limited
Color primaries : BT.709
Transfer characteristics : BT.709
Matrix coefficients : BT.709

Audio #1
ID : 2
Format : AC-3
Format/Info : Audio Coding 3
Format settings, Endianness : Big
Codec ID : A_AC3
Duration : 1 h 25 min
Bit rate mode : Constant
Bit rate : 640 kb/s
Channel(s) : 6 channels
Channel positions : Front: L C R, Side: L R, LFE
Sampling rate : 48.0 kHz
Frame rate : 31.250 FPS (1536 SPF)
Bit depth : 16 bits
Compression mode : Lossy
Stream size : 394 MiB (9%)
Title : Surround
Language : English
Service kind : Complete Main
Default : No
Forced : No

Audio #2
ID : 3
Format : AC-3
Format/Info : Audio Coding 3
Format settings, Endianness : Big
Codec ID : A_AC3
Duration : 1 h 25 min
Bit rate mode : Constant
Bit rate : 640 kb/s
Channel(s) : 6 channels
Channel positions : Front: L C R, Side: L R, LFE
Sampling rate : 48.0 kHz
Frame rate : 31.250 FPS (1536 SPF)
Bit depth : 16 bits
Compression mode : Lossy
Delay relative to video : -5 ms
Stream size : 394 MiB (9%)
Title : Surround
Language : English
Service kind : Complete Main
Default : No
Forced : No

Audio #3
ID : 4
Format : AC-3
Format/Info : Audio Coding 3
Format settings, Endianness : Big
Codec ID : A_AC3
Duration : 1 h 25 min
Bit rate mode : Constant
Bit rate : 640 kb/s
Channel(s) : 6 channels
Channel positions : Front: L C R, Side: L R, LFE
Sampling rate : 48.0 kHz
Frame rate : 31.250 FPS (1536 SPF)
Bit depth : 16 bits
Compression mode : Lossy
Stream size : 394 MiB (9%)
Title : Surround
Language : Thai
Service kind : Complete Main
Default : Yes
Forced : Yes

Text #1
ID : 5
Format : PGS
Muxing mode : zlib
Codec ID : S_HDMV/PGS
Codec ID/Info : Picture based subtitle format used on BDs/HD-DVDs
Language : Thai
Default : No
Forced : Yes

Text #2
ID : 6
Format : PGS
Muxing mode : zlib
Codec ID : S_HDMV/PGS
Codec ID/Info : Picture based subtitle format used on BDs/HD-DVDs
Language : Thai
Default : Yes
Forced : Yes

Text #3
ID : 7
Format : PGS
Muxing mode : zlib
Codec ID : S_HDMV/PGS
Codec ID/Info : Picture based subtitle format used on BDs/HD-DVDs
Language : English
Default : No
Forced : No

Menu
00:00:00.000 : :Chapter 1
00:05:33.331 : :Chapter 2
00:08:34.720 : :Chapter 3
00:12:40.174 : :Chapter 4
00:17:56.948 : :Chapter 5
00:22:31.931 : :Chapter 6
00:26:56.696 : :Chapter 7
00:30:57.937 : :Chapter 8
00:35:30.918 : :Chapter 9
00:40:06.652 : :Chapter 10
00:44:34.878 : :Chapter 11
00:48:52.427 : :Chapter 12
00:52:18.925 : :Chapter 13
00:57:15.638 : :Chapter 14
01:02:16.814 : :Chapter 15
01:06:56.635 : :Chapter 16
01:12:37.184 : :Chapter 17
01:16:20.198 : :Chapter 18
01:18:18.733 : :Chapter 19
01:19:10.118 : :Chapter 20

DOWNLOAD


PART01 |||| PART02 |||| PART03 |||| PART04 |||| PART05

PART01 |||| PART02 |||| PART03 |||| PART04 |||| PART05

PART01 |||| PART02 |||| PART03 |||| PART04 |||| PART05

PART01 |||| PART02 |||| PART03 |||| PART04 |||| PART05

PART01 |||| PART02 |||| PART03 |||| PART04 |||| PART05


2 Comments
  1. วิพิชย์ ภัคบัวพันธุ์ดา

    แบบ vip หาย

    1. Admin
      Admin says

      แก้ไขเรียบร้อยฮ๊ะ

Leave A Reply

อีเมล์ของคุณจะไม่แสดงให้เห็น Your email address will not be published.

%d bloggers like this: