[MINI-HD] Lincoln (2012) ลินคอล์น [1080p] [พากย์ไทย 5.1 + เสียงอังกฤษ DTS] [บรรยายไทย + อังกฤษ] [เสียงไทย + ซับไทย] [OPENLOAD]

0

Lincoln (2012)

โหลดหนัง Lincoln (2012) ลินคอล์น

Lincoln (2012) 2h 30min | Biography, Drama, History | 31 January 2013 (Netherlands) Summary: As the American Civil War continues to rage, America's president struggles with continuing carnage on the battlefield as he fights with many inside his own cabinet on the decision to emancipate the slaves.
Countries: USA, IndiaLanguages: English

เรื่องย่อ Lincoln (2012) ลินคอล์น

ถ่ายทอดเรื่องราวในช่วงเวลาสี่เดือนสุดท้ายในชีวิ ตและการดำรงตำแหน่งประธานาธิบดีของอับราฮัม ลินคอล์น ที่กำลังมุ่งมั่นกับการยุติสงครามกลางเมืองที่เลวร้า ย ไม่ใช่ด้วยการจบสงครามเท่านั้น แต่ยังรวมถึงการเดินหน้ารุก เพื่อผ่านบทบัญญัติเพิ่มเติมรัฐธรรมนูญข้อที่ 13 ซึ่งจะเป็นการเลิกทาสอย่างถาวรด้วย มันจะเป็นวีรกรรมแห่งประเทศชาติอย่างแท้จริง เขาจะต้องใช้ทักษะ ความกล้าหาญ และศีลธรรมอันกล้าแกร่งทั้งหมดเท่าที่มี ซึ่งทั้งหมดนี้เองที่ทำให้เขากลายเป็นตำนานในที่สุด! !!

Complete name : [MINI-HD]_Lincoln.2012.1080p.DVDRip.DTS.x264.One2loadup.com.mkv
Format : Matroska
Format version : Version 4
File size : 4.14 GiB
Duration : 2 h 30 min
Overall bit rate : 3 936 kb/s
Movie name : [MINI-HD]_Lincoln.2012.1080p.DVDRip.DTS.x264.One2loadup.com
Encoded date : UTC 2016-11-17 01:57:11 / UTC 2016-11-16T23:52:28Z
Writing library : libebml v1.3.1 + libmatroska v1.4.2 / Lavf55.12.0

Video
ID : 1
Format : AVC
Format/Info : Advanced Video Codec
Format profile : [email protected]
Format settings : CABAC / 4 Ref Frames
Format settings, CABAC : Yes
Format settings, ReFrames : 4 frames
Codec ID : V_MPEG4/ISO/AVC
Duration : 2 h 30 min
Bit rate : 1 901 kb/s
Width : 1 920 pixels
Height : 800 pixels
Display aspect ratio : 2.40:1
Frame rate mode : Constant
Frame rate : 23.976 (24000/1001) FPS
Color space : YUV
Chroma subsampling : 4:2:0
Bit depth : 8 bits
Scan type : Progressive
Bits/(Pixel*Frame) : 0.052
Stream size : 2.00 GiB (48%)
Title : [MINI-HD]_Lincoln.2012.1080p.DVDRip.DTS.x264.One2loadup.com
Writing library : x264 core 142 r2479 dd79a61
Encoding settings : cabac=1 / ref=1 / deblock=1:0:0 / analyse=0x1:0x111 / me=hex / subme=2 / psy=1 / psy_rd=1.00:0.00 / mixed_ref=0 / me_range=16 / chroma_me=1 / trellis=0 / 8x8dct=0 / cqm=0 / deadzone=21,11 / fast_pskip=1 / chroma_qp_offset=0 / threads=6 / lookahead_threads=2 / sliced_threads=0 / nr=0 / decimate=1 / interlaced=0 / bluray_compat=0 / constrained_intra=0 / bframes=3 / b_pyramid=2 / b_adapt=1 / b_bias=0 / direct=1 / weightb=1 / open_gop=0 / weightp=1 / keyint=240 / keyint_min=24 / scenecut=40 / intra_refresh=0 / rc_lookahead=10 / rc=crf / mbtree=1 / crf=23.0 / qcomp=0.60 / qpmin=0 / qpmax=69 / qpstep=4 / vbv_maxrate=20000 / vbv_bufsize=25000 / crf_max=0.0 / nal_hrd=none / filler=0 / ip_ratio=1.40 / aq=1:1.00
Language : Thai
Default : Yes
Forced : Yes
Color range : Limited
Color primaries : BT.709
Transfer characteristics : BT.709
Matrix coefficients : BT.709

Audio #1
ID : 2
Format : DTS ES
Format/Info : Digital Theater Systems
Commercial name : DTS-ES Matrix
Codec ID : A_DTS
Duration : 2 h 30 min
Bit rate mode : Constant
Bit rate : 1 509 kb/s
Channel(s) : 6 channels
Channel(s)_Original : 7 channels
Channel layout : C L R Ls Rs Cb LFE
Sampling rate : 48.0 kHz
Frame rate : 93.750 FPS (512 SPF)
Bit depth : 24 bits
Compression mode : Lossy
Stream size : 1.59 GiB (38%)
Title : Surround
Language : English
Default : No
Forced : No

Audio #2
ID : 3
Format : AC-3
Format/Info : Audio Coding 3
Commercial name : Dolby Digital
Codec ID : A_AC3
Duration : 2 h 30 min
Bit rate mode : Constant
Bit rate : 448 kb/s
Channel(s) : 6 channels
Channel layout : L R C LFE Ls Rs
Sampling rate : 48.0 kHz
Frame rate : 31.250 FPS (1536 SPF)
Bit depth : 16 bits
Compression mode : Lossy
Stream size : 483 MiB (11%)
Title : Surround
Language : Thai
Service kind : Complete Main
Default : Yes
Forced : Yes

Text #1
ID : 4
Format : PGS
Muxing mode : zlib
Codec ID : S_HDMV/PGS
Codec ID/Info : Picture based subtitle format used on BDs/HD-DVDs
Language : English
Default : No
Forced : Yes

Text #2
ID : 5
Format : PGS
Muxing mode : zlib
Codec ID : S_HDMV/PGS
Codec ID/Info : Picture based subtitle format used on BDs/HD-DVDs
Language : Thai
Default : Yes
Forced : Yes

Menu
00:00:00.000 : :Chapter 1
00:06:53.305 : :Chapter 2
00:14:40.105 : :Chapter 3
00:23:58.329 : :Chapter 4
00:35:55.754 : :Chapter 5
00:41:13.280 : :Chapter 6
00:46:35.977 : :Chapter 7
00:53:38.899 : :Chapter 8
01:00:28.058 : :Chapter 9
01:09:08.161 : :Chapter 10
01:19:38.124 : :Chapter 11
01:25:12.208 : :Chapter 12
01:36:23.211 : :Chapter 13
01:40:41.052 : :Chapter 14
01:47:22.954 : :Chapter 15
01:53:35.534 : :Chapter 16
02:03:33.215 : :Chapter 17
02:10:14.449 : :Chapter 18
02:16:24.902 : :Chapter 19
02:22:05.451 : :Chapter 20

DOWNLOAD


PART01 |||| PART02 |||| PART03 |||| PART04 |||| PART05

PART01 |||| PART02 |||| PART03 |||| PART04 |||| PART05

PART01 |||| PART02 |||| PART03 |||| PART04 |||| PART05

PART01 |||| PART02 |||| PART03 |||| PART04 |||| PART05


Disable Comments
%d bloggers like this: