[MINI-HD] Life Is Beautiful (1997) ยิ้มไว้โลกนี้ไม่มีสิ้นหวัง [1080p] [พากย์ไทย 5.1 + เสียงอิตาลี 5.1] [บรรยายไทย + อังกฤษ] [เสียงไทย + ซับไทย] [PANDAFILE]

0

โหลดหนัง Life Is Beautiful (1997) ยิ้มไว้โลกนี้ไม่มีสิ้นหวัง

Life Is Beautiful | December 20, 1997 (Italy) Summary: When an open-minded Jewish waiter and his son become victims of the Holocaust, he uses a perfect mixture of will, humor, and imagination to protect his son from the dangers around their camp... Read all
Countries: ItalyLanguages: Italian, German, English

เรื่องย่อ Life Is Beautiful (1997) ยิ้มไว้โลกนี้ไม่มีสิ้นหวัง

ยิ้มไว้โลกนี้ไม่มีสิ้นหวัง (ชื่ออังกฤษ: Life Is Beautiful, ชื่ออิตาลี: La vita & bella) เป็นภาพยนตร์สัญชาติอิตาเลียนที่พูดถึงชาวยิวในอิตาล ีที่ชื่อ กุยโด (แสดงโดย โรแบร์โต เบนิญี่ ที่ทั้งกำกับเองและร่วมเขียนบทในภาพยนตร์) ภาพยนตร์เรื่องนี้ได้รับการเสนอชื่อเข้าชิงรางวัลออส การ์ 7 สาขาในปี ค.ศ. 1998 คือ รางวัลภาพยนตร์ยอดเยี่ยม, รางวัลผู้กำกับภาพยนตร์ยอดเยี่ยม, รางวัลภาพยนตร์ต่างประเทศยอดเยี่ยม, รางวัลนักแสดงนำชายยอดเยี่ยม, รางวัลดนตรีประกอบยอดเยี่ยม , รางวัลบทภาพยนตร์ดั้งเดิมยอดเยี่ยม, รางวัลตัดต่อยอดเยี่ยม และได้รับรางวัล 3 สาขา คือ รางวัลภาพยนตร์ต่างประเทศยอดเยี่ยม, รางวัลดนตรีประกอบยอดเยี่ยม และรางวัลนักแสดงนำชายยอดเยี่ยมโดย โรแบร์โต เบนิญี่ กุยโดชาวยิวในอิตาลี มีความฝันอยากจะเปิดร้านหนังสือของตัวเอง ในปี ค.ศ. 1939 เขาย้ายเข้ามาอยู่ที่อเรซโซและตกหลุมรักตอร่าที่มีอาชีพครู ทั้งคู่แต่งงานกันและมีลูกชายที่ชื่อว่าโจซัว กุยโดสามารถเปิดร้านขายหนังสือได้สำเร็จ แต่แล้วก็เกิดเหตุการณ์ที่มีการกวาดล้างเผ่าพันธุ์ยิวในสงครามโลกครั้งที่ 2 โดยนาซีเยอรมนีที่อิตาลีเมื่อโจซัวอายุได้ 5 ปี กุยโดและโจชัวถูกพาตัวไปเข้าค่ายกักกัน ส่วนตอร่าแม้จะไม่ใช่ชาวยิว แต่เธอก็ไปยังค่ายกักกันพร้อมกับครอบครัว กุยโดพยายามรักษาภาพอันสวยงามให้กับลูกชาย ในภาวะเหตุการณ์ที่เลวร้ายนี้ โดยต้องโกหกลูกชายอยู่ตลอดเวลาให้มีรอยยิ้มมีความหวัง

Complete name : [MINI-HD]_Life.is.Beautiful.1997.1080p.BrRip.AC3.x264.One2loadup.com.mkv
Format : Matroska
Format version : Version 4
File size : 3.57 GiB
Duration : 1 h 56 min
Overall bit rate : 4 404 kb/s
Movie name : [MINI-HD]_Life.is.Beautiful.1997.1080p.BrRip.AC3.x264.One2loadup.com
Encoded date : UTC 2013-10-18 11:56:42
Writing application : mkvmerge v6.0.0 (‘Coming Up For Air’) built on Jan 20 2013 09:52:00
Writing library : libebml v1.3.0 + libmatroska v1.4.0
Attachments : x264 2nd pass.log

Video
ID : 1
Format : AVC
Format/Info : Advanced Video Codec
Format profile : [email protected]
Format settings : CABAC / 4 Ref Frames
Format settings, CABAC : Yes
Format settings, ReFrames : 4 frames
Codec ID : V_MPEG4/ISO/AVC
Duration : 1 h 56 min
Nominal bit rate : 3 630 kb/s
Width : 1 920 pixels
Height : 1 040 pixels
Display aspect ratio : 1.85:1
Frame rate mode : Constant
Frame rate : 23.976 (24000/1001) FPS
Color space : YUV
Chroma subsampling : 4:2:0
Bit depth : 8 bits
Scan type : Progressive
Bits/(Pixel*Frame) : 0.076
Title : [MINI-HD]_Life.is.Beautiful.1997.1080p.BrRip.AC3.x264.One2loadup.com
Writing library : x264 core 112
Encoding settings : cabac=1 / ref=3 / deblock=1:-1:-1 / analyse=0x3:0x133 / me=hex / subme=7 / psy=1 / psy_rd=1.00:0.00 / mixed_ref=1 / me_range=16 / chroma_me=1 / trellis=2 / 8x8dct=1 / cqm=0 / deadzone=21,11 / fast_pskip=1 / chroma_qp_offset=-2 / threads=6 / sliced_threads=0 / nr=0 / decimate=1 / interlaced=0 / constrained_intra=0 / bframes=3 / b_pyramid=2 / b_adapt=1 / b_bias=0 / direct=1 / weightb=1 / open_gop=0 / weightp=2 / keyint=240 / keyint_min=23 / scenecut=40 / intra_refresh=0 / rc_lookahead=50 / rc=2pass / mbtree=1 / bitrate=3630 / ratetol=1.0 / qcomp=0.60 / qpmin=3 / qpmax=51 / qpstep=4 / cplxblur=20.0 / qblur=0.5 / ip_ratio=1.40 / aq=1:1.00
Language : Italian
Default : Yes
Forced : No
Color range : Limited
Color primaries : BT.709
Transfer characteristics : BT.709
Matrix coefficients : BT.709

Audio #1
ID : 2
Format : AC-3
Format/Info : Audio Coding 3
Commercial name : Dolby Digital
Codec ID : A_AC3
Duration : 1 h 56 min
Bit rate mode : Constant
Bit rate : 224 kb/s
Channel(s) : 6 channels
Channel layout : L R C LFE Ls Rs
Sampling rate : 48.0 kHz
Frame rate : 31.250 FPS (1536 SPF)
Bit depth : 16 bits
Compression mode : Lossy
Stream size : 186 MiB (5%)
Title : TH DD 5.1 DVDMASTER
Language : Thai
Service kind : Complete Main
Default : Yes
Forced : Yes

Audio #2
ID : 3
Format : AC-3
Format/Info : Audio Coding 3
Commercial name : Dolby Digital
Codec ID : A_AC3
Duration : 1 h 56 min
Bit rate mode : Constant
Bit rate : 384 kb/s
Channel(s) : 6 channels
Channel layout : L R C LFE Ls Rs
Sampling rate : 48.0 kHz
Frame rate : 31.250 FPS (1536 SPF)
Bit depth : 16 bits
Compression mode : Lossy
Stream size : 319 MiB (9%)
Title : IT DD 5.1 FROM BDMASTER
Language : Italian
Service kind : Complete Main
Default : No
Forced : No

Audio #3
ID : 4
Format : AAC LC
Format/Info : Advanced Audio Codec Low Complexity
Codec ID : A_AAC-2
Duration : 1 h 56 min
Channel(s) : 2 channels
Channel layout : L R
Sampling rate : 48.0 kHz
Frame rate : 46.875 FPS (1024 SPF)
Compression mode : Lossy
Title : EN AAC 2.0
Language : English
Default : No
Forced : No

Text #1
ID : 5
Format : VobSub
Codec ID : S_VOBSUB
Codec ID/Info : Picture based subtitle format used on DVDs
Title : TH 480P
Language : Thai
Default : No
Forced : No

Text #2
ID : 6
Format : VobSub
Codec ID : S_VOBSUB
Codec ID/Info : Picture based subtitle format used on DVDs
Title : TH 1080P
Language : Thai
Default : Yes
Forced : Yes

Text #3
ID : 7
Format : UTF-8
Codec ID : S_TEXT/UTF8
Codec ID/Info : UTF-8 Plain Text
Title : EN SRT
Language : English
Default : No
Forced : No

Text #4
ID : 8
Format : PGS
Codec ID : S_HDMV/PGS
Codec ID/Info : Picture based subtitle format used on BDs/HD-DVDs
Title : TH PGS
Language : Thai
Default : No
Forced : No

Text #5
ID : 9
Format : PGS
Codec ID : S_HDMV/PGS
Codec ID/Info : Picture based subtitle format used on BDs/HD-DVDs
Title : TH PGS BIG
Language : Thai
Default : No
Forced : No

Menu
00:00:00.000 : en:Chapter 1
00:05:41.883 : en:Chapter 2
00:11:20.721 : en:Chapter 3
00:16:43.544 : en:Chapter 4
00:20:43.283 : en:Chapter 5
00:25:21.561 : en:Chapter 6
00:32:53.513 : en:Chapter 7
00:35:57.196 : en:Chapter 8
00:39:55.476 : en:Chapter 9
00:47:40.440 : en:Chapter 10
00:51:17.657 : en:Chapter 11
00:54:11.831 : en:Chapter 12
00:56:16.456 : en:Chapter 13
01:02:07.306 : en:Chapter 14
01:09:36.255 : en:Chapter 15
01:13:45.003 : en:Chapter 16
01:19:49.367 : en:Chapter 17
01:22:26.024 : en:Chapter 18
01:29:54.472 : en:Chapter 19
01:38:55.012 : en:Chapter 20
01:52:42.881 : en:Chapter 21

DOWNLOAD


PART01 |||| PART02 |||| PART03 |||| PART04

PART01 |||| PART02 |||| PART03 |||| PART04

PART01 |||| PART02 |||| PART03 |||| PART04

PART01 |||| PART02 |||| PART03 |||| PART04

PART01 |||| PART02 |||| PART03 |||| PART04


Leave A Reply

อีเมล์ของคุณจะไม่แสดงให้เห็น Your email address will not be published.

%d bloggers like this: