[MINI-HD] Legend of Deification: King Li Jing (2021) ตำนานราชาแห่งสวรรค์ [1080p] [พากย์ไทย 2.0 + เสียงจีน 2.0] [บรรยายไทย + อังกฤษ] [เสียงไทยมาสเตอร์ + ซับไทย] [USERLOAD]

0

โหลดหนัง Legend of Deification: King Li Jing (2021) ตำนานราชาแห่งสวรรค์

เรื่องย่อ Legend of Deification: King Li Jing (2021) ตำนานราชาแห่งสวรรค์

เดิมหลี่จิ้นเป็นแม่ทัพสมัยราชวงศ์ฮั่นตอนต้น ได้ออกมาล่าสัตว์กับองค์ฮ่องเต้ พระนามว่า จ้าวอ๋อง ทั้งคู่จะดักจับกวางหนุ่มตัวหนึ่ง ขณะนั้นนาจาเป็นเทพเจ้าเด็ก ชอบลงมาบนโลกมนุษย์มาเล่นกับสัตว์ในป่า เมื่อรู้ว่าจ้าวอ๋องผู้มีนิสัยโหดร้ายมาล่าสัตว์ จึงสั่งให้กวางตัวนี้หนีไป แต่กวางตัวนี้ไม่หนี นาจาจึงเอาตัวเข้ารับแทนธนูของแม่ทัพหลี่จิ้งแทน และไปเกิดใหม่ในครรภ์ของภรรยาหลี่จิ้ง เป็นบุตรชายคนที่สามชื่อว่า นาจา ภายหลังจากเสียชีวิต หลี่จิ้งได้รับการแต่งตั้งจากองค์เง็กเซียนฮ่องเต้ได้เป็นขุนพลสวรรค์ มีอาวุธคู่กายคือ เจดีย์ 7 ชั้น ที่เคยจับซุนหงอคงขังเอาไว้ เจดีย์นี้สามารถกักขังได้ทั้งวิญญาณ ภูตผีปีศาจ หรือแม้แต่เทพเจ้า เมื่อหลี่จิ้งจะลงมาโปรดสัตว์โลกจะมีนาจาตามมาด้วยทุกครั้งเทพสวรรค์หลี่จิง ราชาหลี่ผู้ครอบครองเจดีย์เหล็ก7ชั้นบนสวรรค์และพระบิดาของเจ้าชายนาจา เทพสวรรค์หลี่จิงผู้ถือเจดีย์เหล็ก7ชั้นที่สามารถจับ วิญญาณ ปีศาจ หรือเทพเจ้าใดๆ กักขังไว้ในเจดีย์เหล็ก7ชั้นได้ แต่ทุกเรื่องราวล้วนมีจุดเริ่มต้น และนี่คือจุดเริ่มของหลี่จิงในวัยหนุ่มที่เพิ่งลงมาจ ากภูเขาคุนหลุนหลังจากเรียนจบ และมุ่งมั่นที่จะให้ความยุติธรรมแก่ประชาชนและปราบเห ล่าปีศาจที่ชั่วร้าย

Complete name : [MINI-HD]_The.Legend.of.Deification.2021.1080p.WEBRip.AAC.x264.THM.One2loadup.com.mkv
Format : Matroska
Format version : Version 4
File size : 4.12 GiB
Duration : 1 h 20 min
Overall bit rate : 7 376 kb/s
Movie name : [MINI-HD]_The.Legend.of.Deification.2021.1080p.WEBRip.AAC.x264.THM.One2loadup.com
Encoded date : UTC 2022-01-19 16:19:01
Writing application : mkvmerge v64.0.0 (‘Willows’) 64-bit
Writing library : libebml v1.4.2 + libmatroska v1.6.4
Cover : Yes
Attachments : cover

Video
ID : 1
Format : AVC
Format/Info : Advanced Video Codec
Format profile : [email protected]
Format settings : CABAC / 1 Ref Frames
Format settings, CABAC : Yes
Format settings, Reference : 1 frame
Format settings, GOP : M=1, N=25
Codec ID : V_MPEG4/ISO/AVC
Duration : 1 h 20 min
Bit rate mode : Constant
Bit rate : 7 026 kb/s
Width : 1 920 pixels
Height : 1 080 pixels
Display aspect ratio : 16:9
Frame rate mode : Constant
Frame rate : 25.000 FPS
Color space : YUV
Chroma subsampling : 4:2:0
Bit depth : 8 bits
Scan type : Progressive
Bits/(Pixel*Frame) : 0.136
Stream size : 3.92 GiB (95%)
Title : [MINI-HD]_The.Legend.of.Deification.2021.1080p.WEBRip.AAC.x264.THM.One2loadup.com
Language : English
Default : Yes
Forced : No

Audio #1
ID : 2
Format : AAC LC
Format/Info : Advanced Audio Codec Low Complexity
Codec ID : A_AAC-2
Duration : 1 h 20 min
Bit rate : 192 kb/s
Channel(s) : 2 channels
Channel layout : L R
Sampling rate : 44.1 kHz
Frame rate : 43.066 FPS (1024 SPF)
Compression mode : Lossy
Stream size : 112 MiB (3%)
Title : Thai Master 2.0
Language : Thai
Default : Yes
Forced : No

Audio #2
ID : 3
Format : AAC LC
Format/Info : Advanced Audio Codec Low Complexity
Codec ID : A_AAC-2
Duration : 1 h 19 min
Bit rate : 128 kb/s
Channel(s) : 2 channels
Channel layout : L R
Sampling rate : 44.1 kHz
Frame rate : 43.066 FPS (1024 SPF)
Compression mode : Lossy
Stream size : 72.9 MiB (2%)
Title : Chinese 2.0
Language : Chinese
Default : Yes
Forced : No

Text #1
ID : 4
Format : PGS
Muxing mode : zlib
Codec ID : S_HDMV/PGS
Codec ID/Info : Picture based subtitle format used on BDs/HD-DVDs
Duration : 1 h 19 min
Bit rate : 29.1 kb/s
Count of elements : 2170
Stream size : 16.6 MiB (0%)
Title : Th.3.100.90.White
Language : Thai
Default : Yes
Forced : No

Text #2
ID : 5
Format : PGS
Muxing mode : zlib
Codec ID : S_HDMV/PGS
Codec ID/Info : Picture based subtitle format used on BDs/HD-DVDs
Duration : 1 h 19 min
Bit rate : 26.5 kb/s
Count of elements : 2166
Stream size : 15.1 MiB (0%)
Title : EN.110.3.83.Blue
Language : English
Default : No
Forced : No

DOWNLOAD


PART01 |||| PART02 |||| PART03 |||| PART04 |||| PART05

PART01 |||| PART02 |||| PART03 |||| PART04 |||| PART05

PART01 |||| PART02 |||| PART03 |||| PART04 |||| PART05

PART01 |||| PART02 |||| PART03 |||| PART04 |||| PART05

PART01 |||| PART02 |||| PART03 |||| PART04 |||| PART05


Leave A Reply

อีเมล์ของคุณจะไม่แสดงให้เห็น Your email address will not be published.

%d bloggers like this: