[MINI-HD] King Kong (2005) คิงคอง [Extended Cut] [1080p] [พากย์ไทย DTS + เสียงอังกฤษ DTS] [บรรยายไทย + อังกฤษ] [เสียงไทย + ซับไทย] [PANDAFILE]

2

โหลดหนัง King Kong (2005) คิงคอง

King Kong | December 14, 2005 (United States) Summary: A greedy film producer assembles a team of moviemakers and sets out for the infamous Skull Island, where they find more than just cannibalistic natives.
Countries: United States, New Zealand, GermanyLanguages: English

เรื่องย่อ King Kong (2005) คิงคอง

ปี 1933 นักแสดงหญิงประจำละครสลับฉาก แอนน์ ดาร์โรว์ (นาโอมี่ วัตต์ส) พบว่าตัวเธอไม่ต่างจากชาวนิวยอร์กจำนวนมากมายในช่วงเ ศรษฐกิจตกต่ำ ผู้ปราศจากหนทางจะหาเลี้ยงชีพ แม้ไม่เต็มใจที่จะประนีประนอม และต้องปล่อยตัวเองให้จมอยู่กับงานในละครตลก แต่แอนน์มองว่าเธอมีทางเลือกที่แสนจำกัด ขณะที่เธอต้องเดินไปตามท้องถนนของเมืองแมนฮัตตันอย่างไร้จุดหมายเมื่อความหิวทำให้เธอพยายามขโมยแอ๊ปเปิล จากแผงลอยของพ่อค้าขายผลไม้แต่ไม่สำเร็จ เธอได้รับความช่วยเหลือ จากผู้กำกับภาพยนตร์ที่ชื่อ คาร์ล เดนแฮม (แจ็ค แบล็ค) …ดูเหมือนว่านักผจญภัย-นักลงทุนผู้นี้ ไม่ใช่คนแปลกหน้าสำหรับการลักทรัพย์ เพราะในวันนั้น เขาเพิ่งขโมยฟิล์มชุดเดียวที่มีอยู่ของภาพยนตร์เรื่อ งล่าสุดของเขา ที่ยังสร้างไม่เสร็จ มาจากใต้จมูกของผู้บริหารสตูดิโอ เมื่อพวกนั้นขู่จะยึดเงินทุนทั้งหมดของเขาไปในเย็นวันนั้น คาร์ลจะพาลูกเรือของเขาขึ้นเรือบรรทุกสินค้าสัญชาติสิงคโปร์ ชื่อเรือเอสเอสเวนเจอร์ โดยตั้งความหวังไว้ว่า จะสามารถสร้างภาพยนตร์แอ็คชั่น/ ท่องเที่ยว ของเขาให้เสร็จสมบูรณ์ได้ คาร์ลแน่ใจว่าในที่สุดแล้ว เขาจะได้พบกับความยิ่งใหญ่ ที่เขารู้ดีว่ารอเขาอยู่ข้างหน้า และถึงแม้ทีมงานจะเชื่อว่า ความสำเร็จข้างหน้าจะรออยู่ที่สิงคโปร์ แต่คาร์ลหวังว่าเขาจะหาและได้ถ่ายทำ ณ สถานที่ลึกลับในตำนานนั่นก็คือเกาะหัวกะโหลก …โชคร้ายสำหรับคาร์ล เมื่อดารานำหญิงของเขาเกิดถอนตัวออกจากภาพยนตร์เรื่อ งนี้ แต่การออกค้นหาดารานำหญิงคนใหม่ ที่จะต้องใส่เสื้อผ้าไซซ์ 4 ได้ (เพราะเสื้อผ้าทุกชุด ได้ถูกตัดเย็บเอาไว้เรียบร้อยหมดแล้ว) ได้นำคาร์ลไปเจอแอนน์ นักแสดงสาวที่ต้องดิ้นรนทำมาหากิน แอนน์ไม่ค่อยแน่ใจนักกับการเซ็นสัญญากับคาร์ล จนกระทั่งเธอได้รู้ว่า นักเขียนบทละครที่กำลังมาแรง แจ็ค ดริสคอลล์ (เอเดรียน โบรดี้) กำลังเขียนบทภาพยนตร์เรื่องนี้อยู่ เพราะเงินค่าจ้างที่คาร์ล เพื่อนของเขาจ่ายเป็นค่าจ้างการผจญภัยอันเดือดพล่านค รั้งนี้ เป็นเงินรายได้เพิ่มจากรายได้ระดับพอประมาณของดริสคอลล์ ที่ได้จากงานละครเวทีของเขา …หลังจากได้ดารานำหญิงคนใหม่ที่เขาเพิ่งค้นพบ และยังได้มือเขียนบทที่เหมือนโดนบีบให้ต้องขึ้นเรือมาด้วย “เรือกองถ่ายที่เคลื่อนที่ได้” ของ คาร์ล เดนแฮม จึงมุ่งหน้าออกจากท่าเรือนิวยอร์กและมุ่งหน้าสู่จุดห มายปลายทาง ที่ไม่มีใครสักคนบนเรือจะคาดเดาได้!!!

Complete name : [Mini-HD]_King.Kong.Extended.Cut.2005.1080p.BluRay.DTS.x264.One2loadup.com.mkv
Format : Matroska
Format version : Version 2
File size : 5.70 GiB
Duration : 3 h 20 min
Overall bit rate : 4 079 kb/s
Movie name : [Mini-HD]_King.Kong.Extended.Cut.2005.1080p.BluRay.DTS.x264.One2loadup.com
Encoded date : UTC 2017-08-12 15:32:06
Writing application : mkvmerge v5.7.0 (‘The Whirlwind’) built on Jul 8 2012 20:08:51
Writing library : libebml v1.2.3 + libmatroska v1.3.0
Cover : Yes
Attachments : cover_land.png / cover.png

Video
ID : 1
Format : AVC
Format/Info : Advanced Video Codec
Format profile : [email protected]
Format settings, CABAC : Yes
Format settings, RefFrames : 5 frames
Muxing mode : Header stripping
Codec ID : V_MPEG4/ISO/AVC
Duration : 3 h 20 min
Bit rate : 2 525 kb/s
Width : 1 920 pixels
Height : 816 pixels
Display aspect ratio : 2.35:1
Frame rate mode : Constant
Frame rate : 23.976 (24000/1001) FPS
Color space : YUV
Chroma subsampling : 4:2:0
Bit depth : 8 bits
Scan type : Progressive
Bits/(Pixel*Frame) : 0.067
Stream size : 3.44 GiB (60%)
Title : [Mini-HD]_King.Kong.Extended.Cut.2005.1080p.BluRay.DTS.x264.One2loadup.com
Writing library : x264 core 146 r2538 121396c
Encoding settings : cabac=1 / ref=5 / deblock=1:0:0 / analyse=0x3:0x133 / me=umh / subme=10 / psy=1 / psy_rd=1.00:0.00 / mixed_ref=1 / me_range=24 / chroma_me=1 / trellis=2 / 8x8dct=1 / cqm=0 / deadzone=21,11 / fast_pskip=1 / chroma_qp_offset=-2 / threads=36 / lookahead_threads=4 / sliced_threads=0 / nr=0 / decimate=1 / interlaced=0 / bluray_compat=0 / constrained_intra=0 / bframes=6 / b_pyramid=2 / b_adapt=2 / b_bias=0 / direct=3 / weightb=1 / open_gop=0 / weightp=2 / keyint=240 / keyint_min=23 / scenecut=40 / intra_refresh=0 / rc_lookahead=60 / rc=2pass / mbtree=1 / bitrate=2525 / ratetol=1.0 / qcomp=0.60 / qpmin=10 / qpmax=51 / qpstep=4 / cplxblur=20.0 / qblur=0.5 / vbv_maxrate=62500 / vbv_bufsize=78125 / nal_hrd=none / filler=0 / ip_ratio=1.40 / aq=1:1.00
Language : English
Default : Yes
Forced : No

Audio #1
ID : 2
Format : DTS
Format/Info : Digital Theater Systems
Mode : 16
Format settings, Endianness : Big
Muxing mode : Header stripping
Codec ID : A_DTS
Duration : 3 h 20 min
Bit rate mode : Constant
Bit rate : 768 kb/s
Channel(s) : 6 channels
Channel positions : Front: L C R, Side: L R, LFE
Sampling rate : 48.0 kHz
Frame rate : 93.750 FPS (512 SPF)
Bit depth : 24 bits
Compression mode : Lossy
Stream size : 1.07 GiB (19%)
Title : THAI DTS @768Kbps
Language : Thai
Default : Yes
Forced : No

Audio #2
ID : 3
Format : DTS
Format/Info : Digital Theater Systems
Mode : 16
Format settings, Endianness : Big
Muxing mode : Header stripping
Codec ID : A_DTS
Duration : 3 h 20 min
Bit rate mode : Constant
Bit rate : 768 kb/s
Channel(s) : 6 channels
Channel positions : Front: L C R, Side: L R, LFE
Sampling rate : 48.0 kHz
Frame rate : 93.750 FPS (512 SPF)
Bit depth : 24 bits
Compression mode : Lossy
Stream size : 1.07 GiB (19%)
Title : ENGLISH DTS @768Kbps
Language : English
Default : No
Forced : No

Text #1
ID : 4
Format : VobSub
Muxing mode : zlib
Codec ID : S_VOBSUB
Title : TH 480P
Language : Thai
Default : No
Forced : No

Text #2
ID : 5
Format : VobSub
Muxing mode : zlib
Codec ID : S_VOBSUB
Title : TH 1080P
Language : Thai
Default : No
Forced : No

Text #3
ID : 6
Format : PGS
Muxing mode : zlib
Codec ID : S_HDMV/PGS
Title : TH PGS
Language : Thai
Default : No
Forced : No

Text #4
ID : 7
Format : PGS
Muxing mode : zlib
Codec ID : S_HDMV/PGS
Title : EN PGS
Language : English
Default : Yes
Forced : No

DOWNLOAD


PART01 |||| PART02 |||| PART03 |||| PART04 |||| PART05 |||| PART06

PART01 |||| PART02 |||| PART03 |||| PART04 |||| PART05 |||| PART06

PART01 |||| PART02 |||| PART03 |||| PART04 |||| PART05 |||| PART06

PART01 |||| PART02 |||| PART03 |||| PART04 |||| PART05 |||| PART06

PART01 |||| PART02 |||| PART03 |||| PART04 |||| PART05 |||| PART06


2 Comments
  1. Young Oat
    Young Oat says

    cornfile เสียครับรบกวนหน่อย

    1. admin
      admin says

      แก้ไขเรียบร้อยฮ๊ะ

Leave A Reply

อีเมล์ของคุณจะไม่แสดงให้เห็น Your email address will not be published.

%d bloggers like this: