[MINI-HD] James Bond 007 : Skyfall (2012) 007 พยัคฆ์ร้ายเดิมพันระห่ำโลก [1080p] [พากย์ไทย DTS + เสียงอังกฤษ 5.1] [บรรยายไทย + อังกฤษ] [เสียงไทย + ซับไทย] [PANDAFILE]

7

โหลดหนัง James Bond 007 : Skyfall (2012) 007 พยัคฆ์ร้ายเดิมพันระห่ำโลก

Skyfall | November 9, 2012 (United States) Summary: James Bond's loyalty to M is tested when her past comes back to haunt her. When MI6 comes under attack, 007 must track down and destroy the threat, no matter how personal the cost.
Countries: United Kingdom, United States, TurkeyLanguages: English, Turkish, Shanghainese, Portuguese, Japanese

เรื่องย่อ James Bond 007 : Skyfall (2012) 007 พยัคฆ์ร้ายเดิมพันระห่ำโลก

Skyfall หนึ่งในภาคที่ดีที่สุดของหนังชุดเจมส์ บอนด์ ที่เคยมีมา ในครั้งนี้ความภักดีของบอนด์ (แดเนี่ยล เคร็ก) ที่มีต่อเอ็ม (จูดี้ เดนช์) ถูกทดสอบ เมื่อจอมวายร้ายแห่งโลกไซเบอร์ที่เกี่ยวข้องกับอดีตข องเอ็มได้ใช้จุดนี้มา จู่โจมองค์กร MI6 สายลับ 007 จึงต้องออกตามล่าตัวการที่อยู่เบื้องหลัง ซึ่งก็คือสุดยอดอาชญากรเจ้าความคิดนาม ซิลวา (ฆาเวียร์ บาร์เด็ม) ผู้มีแผนแค้นฝังลึกที่ไม่มีสิ่งใดจะหยุดยั้งความตั้ง ใจเขาได้

Complete name : [MINI-HD]_Skyfall.2012.1080p.HQ.THAIDTS.x264.One2loadup.com.mkv
Format : Matroska
Format version : Version 4 / Version 2
File size : 4.21 GiB
Duration : 2 h 23 min
Overall bit rate : 4 214 kb/s
Movie name : [MINI-HD]_Skyfall.2012.1080p.HQ.THAIDTS.x264.One2loadup.com
Encoded date : UTC 2015-11-07 06:49:27
Writing application : mkvmerge v8.1.0 (‘Psychedelic Postcard’) 32bit
Writing library : libebml v1.3.1 + libmatroska v1.4.2

Video
ID : 1
Format : AVC
Format/Info : Advanced Video Codec
Format profile : [email protected]
Format settings, CABAC : Yes
Format settings, RefFrames : 5 frames
Codec ID : V_MPEG4/ISO/AVC
Duration : 2 h 23 min
Bit rate : 3 000 kb/s
Width : 1 920 pixels
Height : 800 pixels
Display aspect ratio : 2.40:1
Frame rate mode : Constant
Frame rate : 23.976 (24000/1001) FPS
Color space : YUV
Chroma subsampling : 4:2:0
Bit depth : 8 bits
Scan type : Progressive
Bits/(Pixel*Frame) : 0.081
Stream size : 2.98 GiB (71%)
Title : [MINI-HD]_Skyfall.2012.1080p.HQ.THAIDTS.x264.One2loadup.com
Writing library : x264 core 142 r2431 ac76440
Encoding settings : cabac=1 / ref=5 / deblock=1:0:0 / analyse=0x3:0x133 / me=umh / subme=10 / psy=1 / psy_rd=1.00:0.00 / mixed_ref=1 / me_range=24 / chroma_me=1 / trellis=2 / 8x8dct=1 / cqm=0 / deadzone=21,11 / fast_pskip=1 / chroma_qp_offset=-2 / threads=12 / lookahead_threads=2 / sliced_threads=0 / nr=0 / decimate=1 / interlaced=0 / bluray_compat=0 / constrained_intra=0 / bframes=8 / b_pyramid=2 / b_adapt=2 / b_bias=0 / direct=3 / weightb=1 / open_gop=0 / weightp=2 / keyint=240 / keyint_min=23 / scenecut=40 / intra_refresh=0 / rc_lookahead=60 / rc=2pass / mbtree=1 / bitrate=3000 / ratetol=1.0 / qcomp=0.60 / qpmin=0 / qpmax=69 / qpstep=4 / cplxblur=20.0 / qblur=0.5 / vbv_maxrate=62500 / vbv_bufsize=78125 / nal_hrd=none / filler=0 / ip_ratio=1.40 / aq=1:1.00
Language : English
Default : Yes
Forced : No

Audio #1
ID : 2
Format : DTS
Format/Info : Digital Theater Systems
Mode : 16
Format settings, Endianness : Big
Codec ID : A_DTS
Duration : 2 h 23 min
Bit rate mode : Constant
Bit rate : 768 kb/s
Channel(s) : 6 channels
Channel positions : Front: L C R, Side: L R, LFE
Sampling rate : 48.0 kHz
Frame rate : 93.750 FPS (512 SPF)
Bit depth : 24 bits
Compression mode : Lossy
Stream size : 786 MiB (18%)
Title : DTS
Language : Thai
Default : Yes
Forced : Yes

Audio #2
ID : 3
Format : AC-3
Format/Info : Audio Coding 3
Format settings, Endianness : Big
Codec ID : A_AC3
Duration : 2 h 23 min
Bit rate mode : Constant
Bit rate : 384 kb/s
Channel(s) : 6 channels
Channel positions : Front: L C R, Side: L R, LFE
Sampling rate : 48.0 kHz
Frame rate : 31.250 FPS (1536 SPF)
Bit depth : 16 bits
Compression mode : Lossy
Stream size : 393 MiB (9%)
Title : AC3
Language : English
Service kind : Complete Main
Default : No
Forced : No

Text #1
ID : 4
Format : VobSub
Codec ID : S_VOBSUB
Codec ID/Info : Picture based subtitle format used on DVDs
Title : 1080P BD
Language : Thai
Default : No
Forced : No

Text #2
ID : 5
Format : VobSub
Codec ID : S_VOBSUB
Codec ID/Info : Picture based subtitle format used on DVDs
Title : 1080P BD UNDER
Language : Thai
Default : No
Forced : No

Text #3
ID : 6
Format : VobSub
Codec ID : S_VOBSUB
Codec ID/Info : Picture based subtitle format used on DVDs
Title : 480P
Language : Thai
Default : No
Forced : No

Text #4
ID : 7
Format : PGS
Codec ID : S_HDMV/PGS
Codec ID/Info : Picture based subtitle format used on BDs/HD-DVDs
Title : BD MASTER
Language : Thai
Default : Yes
Forced : Yes

Text #5
ID : 8
Format : PGS
Codec ID : S_HDMV/PGS
Codec ID/Info : Picture based subtitle format used on BDs/HD-DVDs
Title : BD UNDER
Language : Thai
Default : No
Forced : No

Text #6
ID : 9
Format : PGS
Codec ID : S_HDMV/PGS
Codec ID/Info : Picture based subtitle format used on BDs/HD-DVDs
Title : BD MASTER
Language : English
Default : No
Forced : No

Menu
00:00:00.000 : en:00:00:00.000
00:04:28.477 : en:00:04:28.477
00:07:32.452 : en:00:07:32.452
00:12:47.392 : en:00:12:47.392
00:16:47.465 : en:00:16:47.465
00:21:37.338 : en:00:21:37.338
00:25:00.290 : en:00:25:00.290
00:29:25.222 : en:00:29:25.222
00:35:06.146 : en:00:35:06.146
00:38:27.764 : en:00:38:27.764
00:41:24.440 : en:00:41:24.440
00:46:22.905 : en:00:46:22.905
00:50:48.629 : en:00:50:48.629
00:54:53.290 : en:00:54:53.290
00:59:38.742 : en:00:59:38.742
01:05:14.244 : en:01:05:14.244
01:10:16.671 : en:01:10:16.671
01:17:09.750 : en:01:17:09.750
01:20:55.059 : en:01:20:55.059
01:26:10.374 : en:01:26:10.374
01:31:49.754 : en:01:31:49.754
01:37:04.527 : en:01:37:04.527
01:40:49.085 : en:01:40:49.085
01:43:45.970 : en:01:43:45.970
01:45:54.723 : en:01:45:54.723
01:52:10.599 : en:01:52:10.599
01:54:45.796 : en:01:54:45.796
01:58:13.044 : en:01:58:13.044
02:02:49.112 : en:02:02:49.112
02:09:38.646 : en:02:09:38.646
02:14:49.623 : en:02:14:49.623
02:17:46.425 : en:02:17:46.425

DOWNLOAD


PART01 |||| PART02 |||| PART03 |||| PART04 |||| PART05

PART01 |||| PART02 |||| PART03 |||| PART04 |||| PART05

PART01 |||| PART02 |||| PART03 |||| PART04 |||| PART05

PART01 |||| PART02 |||| PART03 |||| PART04 |||| PART05

PART01 |||| PART02 |||| PART03 |||| PART04 |||| PART05


7 Comments
  1. Panitan Muenduang
    Panitan Muenduang says

    อัพไฟล์ของ openload ให้หน่อยได้ไหมคับ

    1. Admin
      Admin says

      แก้ไขเรียบร้อยฮ๊ะ

  2. Captain Barbossa
    Captain Barbossa says

    โหลดไม่ได้ครับ

    1. Admin
      Admin says

      แก้ไขเรียบร้อยฮ๊ะ

      1. Captain Barbossa
        Captain Barbossa says

        ขอบคุณครับ

  3. Black Pearl The Slayer
    Black Pearl The Slayer says

    อัพไฟล์ใหม่หน่อยครับแอด 😁
    ขอบคุณล่วงหน้าครับ 🙏

    1. Admin
      Admin says

      แก้ไขเรียบร้อยฮ๊ะ

Leave A Reply

อีเมล์ของคุณจะไม่แสดงให้เห็น Your email address will not be published.

%d bloggers like this: