[MINI-HD] The Incredibles (2004) รวมเหล่ายอดคนพิทักษ์โลก [1080p] [พากย์ไทย 5.1 + เสียงอังกฤษ 5.1] [บรรยายไทย + อังกฤษ] [เสียงไทย + ซับไทย] [PANDAFILE]

5

The Incredibles (2004) รวมเหล่ายอดคนพิทักษ์โลก

โหลดหนัง The Incredibles (2004) รวมเหล่ายอดคนพิทักษ์โลก

The Incredibles | November 5, 2004 (United States) Summary: While trying to lead a quiet suburban life, a family of undercover superheroes are forced into action to save the world.
Countries: United StatesLanguages: English, French

เรื่องย่อ The Incredibles (2004) รวมเหล่ายอดคนพิทักษ์โลก

บอกเล่าการผจญภัยของครอบครัวอดีตซูเปอร์ฮีโร่ ที่ค้นพบแหล่งพลังที่แท้จริงของพวกเขา.. จากกันและกัน บ็อบ พาร์ หรือ มิสเตอร์อินเครดิเบิ้ล (ให้เสียงพากย์โดย เครก ที. เนลสัน) ซึ่งครั้งหนึ่งเคยเป็นผู้ขจัดอาชญากรรมนิรนามมือหนึ่ง ผู้ที่ได้ต่อสู้กับวายร้าย และช่วยชีวิตผู้คนเป็นกิจวัตรประจำวัน แต่สิบห้าปีให้หลัง เขาและเฮเลน (ให้เสียงพากย์โดย ฮอลลี ฮันเตอร์) ภรรยาของเขา ผู้เป็นอดีตซูเปอร์ฮีโร่ที่มีชื่อเสียงเช่นเดียวกัน ถูกบังคับให้ต้องใช้ชีวิตแบบคนปกติสามัญในแถบชานเมือง ปัจจุบันนี้พวกเขาใช้ชีวิตเหมือนมนุษย์เดินดินธรรมดา และใช้ชีวิตอย่างปกติสุขกับลูก ๆ ที่พยายามทำตัว “ปกติ” ในแบบของตัวเอง ในฐานะพนักงานประกันภัยกินเงินเดือน สิ่งเดียวที่บ็อบต้องต่อสู้ในทุกวันนี้คือความเบื่อห น่าย และรอบเอวที่นับวันมีแต่จะยืดขยายมากขึ้น

Complete name : [MINI-HD]_The.Incredibles.2004.720p.x264.One2loadup.com.mkv
Format : Matroska
Format version : Version 2
File size : 3.48 GiB
Duration : 1 h 55 min
Overall bit rate mode : Variable
Overall bit rate : 4 320 kb/s
Movie name : [MINI-HD]_The.Incredibles.2004.720p.x264.One2loadup.com
Encoded date : UTC 2012-03-28 04:38:58
Writing application : mkvmerge v3.4.0 (‘Rapunzel’) built on May 15 2010 09:38:20
Writing library : libebml v0.8.0 + libmatroska v0.9.0

Video
ID : 1
Format : AVC
Format/Info : Advanced Video Codec
Format profile : [email protected]
Format settings, CABAC : Yes
Format settings, RefFrames : 16 frames
Codec ID : V_MPEG4/ISO/AVC
Duration : 1 h 55 min
Bit rate mode : Variable
Bit rate : 3 031 kb/s
Maximum bit rate : 300 Mb/s
Width : 1 280 pixels
Height : 534 pixels
Display aspect ratio : 2.40:1
Frame rate mode : Constant
Frame rate : 23.976 (24000/1001) FPS
Color space : YUV
Chroma subsampling : 4:2:0
Bit depth : 8 bits
Scan type : Progressive
Bits/(Pixel*Frame) : 0.185
Stream size : 2.38 GiB (68%)
Writing library : x264 core 120 r2120 0c7dab9
Encoding settings : cabac=1 / ref=16 / deblock=1:0:0 / analyse=0x3:0x133 / me=umh / subme=10 / psy=1 / psy_rd=1.00:0.00 / mixed_ref=1 / me_range=24 / chroma_me=1 / trellis=2 / 8x8dct=1 / cqm=0 / deadzone=21,11 / fast_pskip=1 / chroma_qp_offset=-2 / threads=6 / sliced_threads=0 / nr=0 / decimate=1 / interlaced=0 / bluray_compat=0 / constrained_intra=0 / bframes=8 / b_pyramid=0 / b_adapt=2 / b_bias=0 / direct=3 / weightb=1 / open_gop=0 / weightp=2 / keyint=240 / keyint_min=24 / scenecut=40 / intra_refresh=0 / rc_lookahead=60 / rc=2pass / mbtree=1 / bitrate=3031 / ratetol=1.0 / qcomp=0.60 / qpmin=0 / qpmax=69 / qpstep=4 / cplxblur=20.0 / qblur=0.5 / vbv_maxrate=300000 / vbv_bufsize=300000 / nal_hrd=vbr / ip_ratio=1.40 / aq=1:1.00
Language : English
Default : Yes
Forced : No

Audio #1
ID : 2
Format : AC-3
Format/Info : Audio Coding 3
Format settings, Endianness : Big
Codec ID : A_AC3
Duration : 1 h 55 min
Bit rate mode : Constant
Bit rate : 640 kb/s
Channel(s) : 6 channels
Channel positions : Front: L C R, Side: L R, LFE
Sampling rate : 48.0 kHz
Frame rate : 31.250 FPS (1536 SPF)
Bit depth : 16 bits
Compression mode : Lossy
Stream size : 528 MiB (15%)
Language : Thai
Service kind : Complete Main
Default : Yes
Forced : No

Audio #2
ID : 3
Format : AC-3
Format/Info : Audio Coding 3
Format settings, Endianness : Big
Codec ID : A_AC3
Duration : 1 h 55 min
Bit rate mode : Constant
Bit rate : 640 kb/s
Channel(s) : 6 channels
Channel positions : Front: L C R, Side: L R, LFE
Sampling rate : 48.0 kHz
Frame rate : 31.250 FPS (1536 SPF)
Bit depth : 16 bits
Compression mode : Lossy
Stream size : 528 MiB (15%)
Language : English
Service kind : Complete Main
Default : No
Forced : No

Text #1
ID : 4
Format : VobSub
Muxing mode : zlib
Codec ID : S_VOBSUB
Codec ID/Info : Picture based subtitle format used on DVDs
Language : Thai
Default : No
Forced : No

Text #2
ID : 5
Format : VobSub
Muxing mode : zlib
Codec ID : S_VOBSUB
Codec ID/Info : Picture based subtitle format used on DVDs
Language : English
Default : No
Forced : No

 

DOWNLOAD


PART01 |||| PART02 |||| PART03 |||| PART04

PART01 |||| PART02 |||| PART03 |||| PART04

PART01 |||| PART02 |||| PART03 |||| PART04

PART01 |||| PART02 |||| PART03 |||| PART04

PART01 |||| PART02 |||| PART03 |||| PART04


5 Comments
  1. ไม่บอก says

    แก้พาท1หน่อยครับเฮีย

  2. VocalApp QuestionMark
    VocalApp QuestionMark says

    Vip โหลดไม่ได้ เพิ่งเติมเอง เศร้า

    1. Admin
      Admin says

      ไม่ทราบติดปัญหาตรงไหนฮ๊ะ ทดสอบก็โหลดได้ปกตินะ

  3. ฺBESTNATTAPON says

    ไฟล์เสียจ้า

    1. Admin
      Admin says

      แก้ไขเรียบร้อยฮ๊ะ

Leave A Reply

อีเมล์ของคุณจะไม่แสดงให้เห็น Your email address will not be published.

%d bloggers like this: