[MINI-HD] I Fine Thank You Love You (2014) ไอฟาย..แต๊งกิ้ว..เลิฟยู้ [1080p] [NETFLIX] [พากย์ไทย 5.1] [บรรยายไทย + อังกฤษ] [เสียงไทย + ซับไทย] [PANDAFILE]

0

I Fine Thank You Love You (2014)

โหลดหนัง I Fine Thank You Love You (2014) ไอฟาย..แต๊งกิ้ว..เลิฟยู้

Ai Fai.. Thank You Love You (2014) 1h 57min | Comedy, Romance | 10 December 2014 (Thailand) Summary: Yim goes to English school to keep his Japanese girlfriend in this Thai romantic comedy.
Countries: ThailandLanguages: Thai

เรื่องย่อ I Fine Thank You Love You (2014) ไอฟาย..แต๊งกิ้ว..เลิฟยู้

เพลง (ไอซ์-ปรีชญา พงษ์ธนานิกร) ติวเตอร์ภาษาอังกฤษสาว ต้องพบกับเรื่องราวอันสุดแสนจะน่าปวดหัว เมื่อลูกศิษย์ชาวต่างชาติของเธอตัดสินใจทิ้ง ยิม (ซันนี่ สุวรรณเมธานนท์) แฟนหนุ่มคนไทยไปอเมริกา แต่ด้วยความที่ยิมฟังภาษาอังกฤษไม่ออก เธอจึงอัดวีดิโอบอกเลิกใส่ธัมป์ไดรว์แล้วขอร้องให้เพลงช่วยไปเปิดแปลให้ยิมฟัง เมื่อยิมรู้ว่าถูกบอกเลิกก็โมโหมาก จึงตัดสินใจไปสมัครเรียนภาษาอังกฤษกับเพลง โดยหวังจะตามไปง้อแฟนที่อเมริกา ในขณะเดียวกัน เพลงก็ไปตกหลุมรักกับ คุณพฤกษ์ (ตู่-ภพธร สุนทรญาณกิจ) ลูกศิษย์ คอร์สภาษาอังกฤษเพื่อธุรกิจ หนุ่มหล่อ ชาติตระกูลดี ผู้ซึ่งเป็นดั่งชายในฝันของผู้หญิงทุกคน จนในที่สุดทั้งสองก็ตกลงเป็นแฟนกัน ระหว่างที่การเรียนการสอนของเพลงและยิมค่อยๆ ผ่านไปในแต่ละวัน ทั้งคู่ซึ่งเคยดูเหมือนเกลียดกันในตอนแรก กลับค่อยๆ พอกพูนความรู้สึกดีๆ ต่อกันขึ้นเรื่อยๆ โดยไม่ทันรู้ตัว แล้วความสัมพันธ์ระหว่างติวเตอร์และลูกศิษย์คู่นี้จะลงเอยเช่นไร?

Complete name : [MINI-HD]_I.Fine.Thank.You.Love.You.2014.1080p.WEB-DL.AC3.x264.One2loadup.com.mkv
Format : Matroska
Format version : Version 4
File size : 3.66 GiB
Duration : 1 h 56 min
Overall bit rate : 4 514 kb/s
Movie name : [MINI-HD]_I.Fine.Thank.You.Love.You.2014.1080p.WEB-DL.AC3.x264.One2loadup.com
Encoded date : UTC 2020-01-31 06:04:08
Writing application : mkvmerge v40.0.0 (‘Old Town Road + Pony’) 64-bit
Writing library : libebml v1.3.9 + libmatroska v1.5.2

Video
ID : 1
Format : AVC
Format/Info : Advanced Video Codec
Format profile : [email protected]
Format settings : CABAC / 3 Ref Frames
Format settings, CABAC : Yes
Format settings, ReFrames : 3 frames
Codec ID : V_MPEG4/ISO/AVC
Duration : 1 h 56 min
Bit rate : 4 088 kb/s
Width : 1 920 pixels
Height : 1 080 pixels
Display aspect ratio : 16:9
Frame rate mode : Constant
Frame rate : 25.000 FPS
Color space : YUV
Chroma subsampling : 4:2:0
Bit depth : 8 bits
Scan type : Progressive
Bits/(Pixel*Frame) : 0.079
Stream size : 3.31 GiB (91%)
Title : [MINI-HD]_I.Fine.Thank.You.Love.You.2014.1080p.WEB-DL.AC3.x264.One2loadup.com
Default : Yes
Forced : No

Audio
ID : 2
Format : AC-3
Format/Info : Audio Coding 3
Commercial name : Dolby Digital
Codec ID : A_AC3
Duration : 1 h 56 min
Bit rate mode : Constant
Bit rate : 384 kb/s
Channel(s) : 6 channels
Channel layout : L R C LFE Ls Rs
Sampling rate : 48.0 kHz
Frame rate : 31.250 FPS (1536 SPF)
Bit depth : 16 bits
Compression mode : Lossy
Stream size : 319 MiB (9%)
Language : Thai
Service kind : Complete Main
Default : Yes
Forced : No

Text #1
ID : 3
Format : PGS
Muxing mode : zlib
Codec ID : S_HDMV/PGS
Codec ID/Info : Picture based subtitle format used on BDs/HD-DVDs
Duration : 1 h 51 min
Bit rate : 27.4 kb/s
Count of elements : 4326
Stream size : 21.8 MiB (1%)
Title : TH_PGS
Language : Thai
Default : Yes
Forced : No

Text #2
ID : 4
Format : VobSub
Muxing mode : zlib
Codec ID : S_VOBSUB
Codec ID/Info : Picture based subtitle format used on DVDs
Duration : 1 h 51 min
Bit rate : 12.6 kb/s
Count of elements : 2162
Stream size : 9.99 MiB (0%)
Title : TH_VOBSUB
Language : Thai
Default : No
Forced : No

Text #3
ID : 5
Format : VobSub
Muxing mode : zlib
Codec ID : S_VOBSUB
Codec ID/Info : Picture based subtitle format used on DVDs
Duration : 1 h 51 min
Bit rate : 12.5 kb/s
Count of elements : 2162
Stream size : 9.96 MiB (0%)
Title : TH_VOBSUB_YELLOW
Language : Thai
Default : No
Forced : No

Text #4
ID : 6
Format : PGS
Muxing mode : zlib
Codec ID : S_HDMV/PGS
Codec ID/Info : Picture based subtitle format used on BDs/HD-DVDs
Duration : 1 h 48 min
Bit rate : 25.7 kb/s
Count of elements : 1926
Stream size : 19.9 MiB (1%)
Title : EN_PGS
Language : English
Default : No
Forced : No

DOWNLOAD


PART01 |||| PART02 |||| PART03 |||| PART04

PART01 |||| PART02 |||| PART03 |||| PART04

PART01 |||| PART02 |||| PART03 |||| PART04

PART01 |||| PART02 |||| PART03 |||| PART04

PART01 |||| PART02 |||| PART03 |||| PART04


Leave A Reply

Your email address will not be published.

%d bloggers like this: