[MINI-HD] Guns Akimbo (2020) โทษที มือพี่ไม่ว่าง [1080p] [พากย์ไทย 2.0 + เสียงอังกฤษ 5.1] [บรรยายอังกฤษ] [เสียงไทยมาสเตอร์ + ซับอังกฤษ] [USERLOAD]

0

โหลดหนัง Guns Akimbo (2020) โทษที มือพี่ไม่ว่าง

Guns Akimbo | February 28, 2020 (United States) Summary: A guy relies on his newly-acquired gladiator skills to save his ex-girlfriend from kidnappers.
Countries: Germany, New Zealand, United KingdomLanguages: English, Spanish

เรื่องย่อ Guns Akimbo (2020) โทษที มือพี่ไม่ว่าง

ในยุคที่แฟนเกม อี-สปอร์ต เล่นสดออนไลน์หลายล้านคนพร้อมกันทั้งโลก เกมเดือดเลือดสาดออนไลน์ของโลกอนาคตในหนังไซไฟทริลเลอร์ Guns Akimbo (กันส์ อคิมโบ) ของ ผู้กำกับ เจสัน เลย์ ฮาวเดน ก็ไม่ใช่เรื่องเหนือจินตนาการ หนังเล่าเรื่องถึง ไมล์ส (แดเนียล แรดคลิฟฟ์ แสดง) นักพัฒนาวิดีโอเกม เสพติดการคอมเมนต์ออนไลน์ ความเกรียนของเขาทั้งยั่วยุ ด่ากราดและพาลแบบไม่ยั้งมือ และแล้วคืนหนึ่ง ด้วยความมึนเมา ไมล์ส เผลอเกรียนหนักหย่อนชนวนในบอร์ดของเกม “Skizm” (สคิซซึม) เกมมวยคาดเชือกแบบเอาตายที่กำลังสตรีมมิ่งสดไปทั่วโลก ริคเตอร์ (เน็ด เดนนีย์) ผู้อยู่เบื้องหลังของเกมสตรีมมิงสายโหด จึงตอบโต้ด้วยการบีบไมล์สทางอ้อมแต่มาแบบเต็มตัวให้ร่วมความสนุกสุดโหดนี้ด้วย ไมล์สตื่นขึ้นมาพร้อมกับปืนสั้นสลักอยู่ในกระดูกของเขา และพบว่าคู่ต่อสู้คนแรกของเขา คือ นิกซ์ (แซมมารา วีฟวิ่ง) ผู้เล่นดาวเด่นจอมลั่นไกของเกม the Skizm และเธอก็จ่อรออยู่หน้าประตูบ้านเขาแล้ว Guns Akimbo เป็นหนังไซไฟทริลเลอร์ ที่เต็มไปด้วยความระทึกปนขำกับแอ็คชั่นดุฝังมุกสุดดาร์ค ผสมกลิ่นอายหนังดัดแปลงจากนิยายผจญภัยเรื่อง Scott Pilgrim vs. the World ของเอดการ์ ไรท์ หนังภาคต่อชุด The Purge และวิดีโอเกมออนไลน์ยอดฮิตอย่าง Smash TV และ Mortal Kombat ผู้กำกับ ฮาวเดน ทำนายโลกอนาคตที่อาจเกิดขึ้นจริงในไม่ช้า ไม่ว่าจะเป็น นิวส์ฟีดส่งตรงจากกล้องติดเครื่องโดรน การแข่งขันที่ดุเดือดแบบไร้ขีดจำกัดในแบบเกม UFC และแพลตฟอร์มเกมสตรีมมิงสดที่กลายเป็นความบันเทิงเลือดสาดให้ชมพร้อมกันทั่วโลก เมื่อไมล์สต้องลงเล่นเกมในโลกมืดของ Skizm เรตติ้งผู้ชมพุ่งสูงลิ่วพอๆ กับเดิมพันชีวิตของเขา

Complete name : [MINI-HD]_Guns.Akimbo.2019.1080p.WEBRip.AC3.x264.THM.One2loadup.com.mkv
Format : Matroska
Format version : Version 4
File size : 5.01 GiB
Duration : 1 h 37 min
Overall bit rate : 7 327 kb/s
Movie name : [MINI-HD]_Guns.Akimbo.2019.1080p.WEBRip.AC3.x264.THM.One2loadup.com
Encoded date : UTC 2022-10-14 19:50:13
Writing application : mkvmerge v68.0.0.1 (‘The Curtain’) 64-bit
Writing library : libebml v1.4.2 + libmatroska v1.6.4
Cover : Yes
Attachments : cover / small_cover.jpg / small_cover_land.jpg / cover.jpg / cover_land.jpg

Video #1
ID : 1
Format : AVC
Format/Info : Advanced Video Codec
Format profile : [email protected]
Format settings : CABAC / 5 Ref Frames
Format settings, CABAC : Yes
Format settings, Reference : 5 frames
Codec ID : V_MPEG4/ISO/AVC
Duration : 1 h 37 min
Bit rate : 4 479 kb/s
Width : 1 912 pixels
Height : 792 pixels
Display aspect ratio : 2.40:1
Frame rate mode : Constant
Frame rate : 23.976 (24000/1001) FPS
Color space : YUV
Chroma subsampling : 4:2:0
Bit depth : 8 bits
Scan type : Progressive
Bits/(Pixel*Frame) : 0.123
Stream size : 3.06 GiB (61%)
Title : [MINI-HD]_Guns.Akimbo.2019.1080p.WEBRip.AC3.x264.THM.One2loadup.com
Language : English
Default : Yes
Forced : No
Color range : Limited
Color primaries : BT.709
Transfer characteristics : BT.709
Matrix coefficients : BT.709

Video #2
ID : 2
Format : AVC
Format/Info : Advanced Video Codec
Format profile : [email protected]
Format settings : CABAC / 1 Ref Frames
Format settings, CABAC : Yes
Format settings, Reference : 1 frame
Format settings, GOP : M=1, N=25
Codec ID : V_MPEG4/ISO/AVC
Duration : 1 h 37 min
Bit rate mode : Constant
Bit rate : 2 253 kb/s
Width : 1 920 pixels
Height : 804 pixels
Display aspect ratio : 2.40:1
Frame rate mode : Constant
Frame rate : 23.976 (24000/1001) FPS
Color space : YUV
Chroma subsampling : 4:2:0
Bit depth : 8 bits
Scan type : Progressive
Bits/(Pixel*Frame) : 0.061
Stream size : 1.54 GiB (31%)
Language : English
Default : Yes
Forced : No

Audio #1
ID : 3
Format : AC-3
Format/Info : Audio Coding 3
Commercial name : Dolby Digital
Codec ID : A_AC3
Duration : 1 h 37 min
Bit rate mode : Constant
Bit rate : 384 kb/s
Channel(s) : 6 channels
Channel layout : L R C LFE Ls Rs
Sampling rate : 48.0 kHz
Frame rate : 31.250 FPS (1536 SPF)
Compression mode : Lossy
Stream size : 269 MiB (5%)
Title : En.AC3_384 kbs.6 channels
Language : English
Service kind : Complete Main
Default : No
Forced : No

Audio #2
ID : 4
Format : AAC LC
Format/Info : Advanced Audio Codec Low Complexity
Codec ID : A_AAC-2
Duration : 1 h 37 min
Bit rate : 192 kb/s
Channel(s) : 2 channels
Channel layout : L R
Sampling rate : 48.0 kHz
Frame rate : 46.875 FPS (1024 SPF)
Compression mode : Lossy
Stream size : 133 MiB (3%)
Title : Th.AAC.2.0_192 kbs
Language : Thai
Default : Yes
Forced : No

Text
ID : 5
Format : PGS
Muxing mode : zlib
Codec ID : S_HDMV/PGS
Codec ID/Info : Picture based subtitle format used on BDs/HD-DVDs
Duration : 1 h 29 min
Bit rate : 32.6 kb/s
Count of elements : 2730
Stream size : 20.9 MiB (0%)
Title : EN.110.3.83.Yellow
Language : English
Default : No
Forced : No

Menu
00:00:00.000 : en:1
00:04:15.000 : en:2
00:12:40.000 : en:3
00:22:38.000 : en:4
00:31:55.000 : en:5
00:41:14.000 : en:6
00:51:44.000 : en:7
01:01:40.000 : en:8
01:10:00.000 : en:9
01:21:25.000 : en:10
01:30:08.000 : en:11

DOWNLOAD


PART01 |||| PART02 |||| PART03 |||| PART04 |||| PART05 |||| PART06

PART01 |||| PART02 |||| PART03 |||| PART04 |||| PART05 |||| PART06

PART01 |||| PART02 |||| PART03 |||| PART04 |||| PART05 |||| PART06

PART01 |||| PART02 |||| PART03 |||| PART04 |||| PART05 |||| PART06

PART01 |||| PART02 |||| PART03 |||| PART04 |||| PART05 |||| PART06


Leave A Reply

อีเมล์ของคุณจะไม่แสดงให้เห็น Your email address will not be published.

%d bloggers like this: