[MINI-HD] Godzilla vs. Kong (2021) ก็อดซิลล่า ปะทะ คอง [1080p] [พากย์ไทย 2.0 + เสียงอังกฤษ 5.1] [บรรยายไทย + อังกฤษ] [เสียงไทยมาสเตอร์ + ซับไทย] [PANDAFILE]

0

โหลดหนัง Godzilla vs. Kong (2021) ก็อดซิลล่า ปะทะ คอง

Godzilla vs. Kong (2021) 113min | Action, Sci-Fi, Thriller | 31 March 2021 (USA) Summary: The epic next chapter in the cinematic Monsterverse pits two of the greatest icons in motion picture history against one another - the fearsome Godzilla and the mighty Kong - with humanity caught in the balance.
Countries: USA, AustraliaLanguages: English

เรื่องย่อ Godzilla vs. Kong (2021) ก็อดซิลล่า ปะทะ คอง

เรื่องราวการปะทะกันระหว่างคู่ต่อสู้แห่งตำนานที่ต่อ สู้กันอย่างน่าตื่นเต้นมาย่างยาวนาน โดยมีชะตากรรมของโลกแขวนอยู่บนเส้นขนาน คอง และผู้ดูแลของเขาสัญญากันว่าจะยอมผจญภัยเสี่ยงตายเพื่อหาบ้านที่แท้จริงของเขา โดยมี จีอา (เคย์ลี ฮอตเทิล) สาวน้อยเด็กกำพร้าร่วมทางไปกับพวกเขาจนเกิดความผูกพันอย่างแน่นแฟ้นและไม่เหมือนใคร แต่พวกเขากลับต้องเผชิญหน้ากับ ก็อดซิลล่า ที่กำลังคลุ้มคลั่ง ปล่อยรัศมีการทำลายล้างกระจายไปทั่วโลกการปะทะกันระหว่างสองยักษ์ใหญ่เกิดจากพลังที่มองไม่เห็น ซึ่งเป็นจุดเริ่มต้นของปริศนาที่ซ่อนอยู่ในใจกลางของโลก

Complete name : [MINI-HD]_Godzilla.vs.Kong.2021.1080p.WEB-DL.EAC3.x264.THM.One2loadup.com.mkv
Format : Matroska
Format version : Version 4
File size : 4.38 GiB
Duration : 1 h 53 min
Overall bit rate mode : Variable
Overall bit rate : 5 548 kb/s
Movie name : [MINI-HD]_Godzilla.vs.Kong.2021.1080p.WEB-DL.EAC3.x264.THM.One2loadup.com
Encoded date : UTC 2021-05-08 14:08:21
Writing application : mkvmerge v50.0.0 (‘Awakenings’) 64-bit
Writing library : libebml v1.4.0 + libmatroska v1.6.2

Video
ID : 1
Format : AVC
Format/Info : Advanced Video Codec
Format profile : [email protected]
Format settings : CABAC / 4 Ref Frames
Format settings, CABAC : Yes
Format settings, Reference : 4 frames
Codec ID : V_MPEG4/ISO/AVC
Duration : 1 h 53 min
Bit rate mode : Variable
Bit rate : 4 546 kb/s
Maximum bit rate : 62.5 Mb/s
Width : 1 920 pixels
Height : 800 pixels
Display aspect ratio : 2.40:1
Frame rate mode : Constant
Frame rate : 23.976 (24000/1001) FPS
Color space : YUV
Chroma subsampling : 4:2:0
Bit depth : 8 bits
Scan type : Progressive
Bits/(Pixel*Frame) : 0.123
Stream size : 3.59 GiB (82%)
Title : [MINI-HD]_Godzilla.vs.Kong.2021.1080p.WEB-DL.EAC3.x264.THM.One2loadup.com
Writing library : x264 core 161 r3018 db0d417
Encoding settings : cabac=1 / ref=3 / deblock=1:-1:-1 / analyse=0x3:0x113 / me=hex / subme=7 / psy=1 / psy_rd=1.00:0.15 / mixed_ref=1 / me_range=16 / chroma_me=1 / trellis=1 / 8x8dct=1 / cqm=0 / deadzone=21,11 / fast_pskip=1 / chroma_qp_offset=-3 / threads=12 / lookahead_threads=2 / sliced_threads=0 / nr=0 / decimate=1 / interlaced=0 / bluray_compat=0 / constrained_intra=0 / bframes=3 / b_pyramid=2 / b_adapt=1 / b_bias=0 / direct=1 / weightb=1 / open_gop=0 / weightp=2 / keyint=240 / keyint_min=24 / scenecut=40 / intra_refresh=0 / rc_lookahead=40 / rc=2pass / mbtree=1 / bitrate=4546 / ratetol=1.0 / qcomp=0.60 / qpmin=0 / qpmax=69 / qpstep=4 / cplxblur=20.0 / qblur=0.5 / vbv_maxrate=62500 / vbv_bufsize=62500 / nal_hrd=vbr / filler=0 / ip_ratio=1.40 / aq=1:1.00
Default : Yes
Forced : No
Color range : Limited
Color primaries : BT.709
Transfer characteristics : BT.709
Matrix coefficients : BT.709

Audio #1
ID : 2
Format : E-AC-3 JOC
Format/Info : Enhanced AC-3 with Joint Object Coding
Commercial name : Dolby Digital Plus with Dolby Atmos
Codec ID : A_EAC3
Duration : 1 h 53 min
Bit rate mode : Constant
Bit rate : 768 kb/s
Channel(s) : 6 channels
Channel layout : L R C LFE Ls Rs
Sampling rate : 48.0 kHz
Frame rate : 31.250 FPS (1536 SPF)
Compression mode : Lossy
Delay relative to video : 1 s 10 ms
Stream size : 621 MiB (14%)
Title : English
Language : English
Service kind : Complete Main
Default : Yes
Forced : No
Complexity index : 16
Number of dynamic objects : 15
Bed channel count : 1 channel
Bed channel configuration : LFE

Audio #2
ID : 9
Format : AAC LC
Format/Info : Advanced Audio Codec Low Complexity
Codec ID : A_AAC-2
Duration : 1 h 52 min
Bit rate : 192 kb/s
Channel(s) : 2 channels
Channel layout : L R
Sampling rate : 44.1 kHz
Frame rate : 43.066 FPS (1024 SPF)
Compression mode : Lossy
Delay relative to video : 11 s 0 ms
Stream size : 153 MiB (3%)
Language : Thai
Default : No
Forced : No

Text #1
ID : 3
Format : UTF-8
Codec ID : S_TEXT/UTF8
Codec ID/Info : UTF-8 Plain Text
Duration : 1 h 45 min
Bit rate : 48 b/s
Count of elements : 1425
Stream size : 37.5 KiB (0%)
Title : SDH
Language : English
Default : No
Forced : No

Text #2
ID : 4
Format : PGS
Muxing mode : zlib
Codec ID : S_HDMV/PGS
Codec ID/Info : Picture based subtitle format used on BDs/HD-DVDs
Duration : 1 h 45 min
Bit rate : 33.6 kb/s
Count of elements : 2850
Stream size : 25.4 MiB (1%)
Title : SDH
Language : English
Default : No
Forced : No

Text #3
ID : 5
Format : UTF-8
Codec ID : S_TEXT/UTF8
Codec ID/Info : UTF-8 Plain Text
Duration : 1 h 44 min
Bit rate : 85 b/s
Count of elements : 884
Stream size : 65.5 KiB (0%)
Language : Thai
Default : No
Forced : No

Text #4
ID : 6
Format : PGS
Muxing mode : zlib
Codec ID : S_HDMV/PGS
Codec ID/Info : Picture based subtitle format used on BDs/HD-DVDs
Duration : 1 h 44 min
Bit rate : 21.2 kb/s
Count of elements : 1768
Stream size : 15.8 MiB (0%)
Language : Thai
Default : Yes
Forced : No

Text #5
ID : 7
Format : PGS
Muxing mode : zlib
Codec ID : S_HDMV/PGS
Codec ID/Info : Picture based subtitle format used on BDs/HD-DVDs
Duration : 1 h 44 min
Bit rate : 21.5 kb/s
Count of elements : 1768
Stream size : 16.1 MiB (0%)
Title : Thai1080p.Angsana
Language : Thai
Default : No
Forced : No

Text #6
ID : 8
Format : PGS
Muxing mode : zlib
Codec ID : S_HDMV/PGS
Codec ID/Info : Picture based subtitle format used on BDs/HD-DVDs
Duration : 1 h 44 min
Bit rate : 21.5 kb/s
Count of elements : 1768
Stream size : 16.1 MiB (0%)
Title : Thai1080p.Angsana [ yellow ]
Language : Thai
Default : No
Forced : No

DOWNLOAD


PART01 |||| PART02 |||| PART03 |||| PART04 |||| PART05

PART01 |||| PART02 |||| PART03 |||| PART04 |||| PART05

PART01 |||| PART02 |||| PART03 |||| PART04 |||| PART05

PART01 |||| PART02 |||| PART03 |||| PART04 |||| PART05

PART01 |||| PART02 |||| PART03 |||| PART04 |||| PART05


Leave A Reply

Your email address will not be published.

%d bloggers like this: