[MINI-HD] As the Gods Will (2014) เกมเทวดา [1080p] [พากย์ญี่ปุ่น] [Soundtrack บรรยายไทย] [เสียงญี่ปุ่น + ซับไทย] [PANDAFILE]

2

โหลดหนัง  As the Gods Will (2014) เกมเทวดา

As the Gods Will | November 15, 2014 (Japan) Summary: A group of high school students are forced to play a game of death without knowing who, why or how.
Countries: JapanLanguages: Japanese

เรื่องย่อ As the Gods Will (2014) เกมเทวดา

ชุน ทาคาฮาตะ (โซตะ ฟุคุชิ) เป็นนักเรียนไฮสคูลธรรมดาที่รู้สึกเบื่อชีวิต เขามีเพื่อนสมัยเด็กชื่อ อิจิกะ อากิโมโตะ (ฮิโรนะ ยามาซากิ) วันหนึ่ง จู่ๆห้องเรียนของเขา ก็มีตัวดารุมะ โผล่ออกมาและคอยไล่ล่า เขาและเพื่อนๆเพื่อเล่นเกมแห่งชีวิต โดยที่ไม่รู้ว่าจะเล่นไปเพื่ออะไร และใครเป็นคนคิดเกมนี้ และสุดท้ายใครคือผู้รอดชีวิต ภาพยนตร์นี้ดัดแปลงมาจากมังงะ เรื่อง เกมเทวดา

Complete name : As.the.Gods.Will.2014.720p.BDRip.x264.HC.SUBTH.One2loadup.com.mkv
Format : Matroska
Format version : Version 4 / Version 2
File size : 1.93 GiB
Duration : 1 h 56 min
Overall bit rate : 2 357 kb/s
Movie name : As.the.Gods.Will.2014.720p.BDRip.x264.HC.SUBTH.One2loadup.com
Encoded date : UTC 2015-05-25 14:48:05
Writing application : mkvmerge v7.8.0 (‘River Man’) 32bit built on Mar 27 2015 16:18:02
Writing library : libebml v1.3.1 + libmatroska v1.4.2
Cover : Yes
Attachments : cover_land.png / cover.png

Video
ID : 1
Format : AVC
Format/Info : Advanced Video Codec
Format profile : [email protected]
Format settings, CABAC : Yes
Format settings, RefFrames : 1 frame
Format settings, GOP : M=1, N=60
Codec ID : V_MPEG4/ISO/AVC
Duration : 1 h 56 min
Bit rate : 1 108 kb/s
Width : 1 280 pixels
Height : 528 pixels
Display aspect ratio : 2.40:1
Frame rate mode : Constant
Frame rate : 23.976 (24000/1001) FPS
Color space : YUV
Chroma subsampling : 4:2:0
Bit depth : 8 bits
Scan type : Progressive
Bits/(Pixel*Frame) : 0.068
Stream size : 927 MiB (47%)
Title : As.the.Gods.Will.2014.720p.BDRip.x264.HC.SUBTH.One2loadup.com
Language : Japanese
Default : Yes
Forced : No

Audio #1
ID : 2
Format : DTS
Format/Info : Digital Theater Systems
Mode : 16
Format settings, Endianness : Big
Codec ID : A_DTS
Duration : 1 h 56 min
Bit rate mode : Constant
Bit rate : 755 kb/s
Channel(s) : 6 channels
Channel positions : Front: L C R, Side: L R, LFE
Sampling rate : 48.0 kHz
Frame rate : 93.750 FPS (512 SPF)
Bit depth : 24 bits
Compression mode : Lossy
Stream size : 631 MiB (32%)
Title : DTS
Language : Japanese
Default : Yes
Forced : Yes

Audio #2
ID : 3
Format : AC-3
Format/Info : Audio Coding 3
Format settings, Endianness : Big
Codec ID : A_AC3
Duration : 1 h 56 min
Bit rate mode : Constant
Bit rate : 448 kb/s
Channel(s) : 6 channels
Channel positions : Front: L C R, Side: L R, LFE
Sampling rate : 48.0 kHz
Frame rate : 31.250 FPS (1536 SPF)
Bit depth : 16 bits
Compression mode : Lossy
Stream size : 375 MiB (19%)
Title : AC3
Language : Japanese
Service kind : Complete Main
Default : No
Forced : No

DOWNLOAD


PART01 |||| PART02

PART01 |||| PART02

PART01 |||| PART02

PART01 |||| PART02

PART01 |||| PART02


2 Comments
  1. Young Oat
    Young Oat says

    ไฟล์เสียหมดเลยครับ

    1. Admin
      Admin says

      แก้ไขเรียบร้อยฮ๊ะ

Leave A Reply

อีเมล์ของคุณจะไม่แสดงให้เห็น Your email address will not be published.

%d bloggers like this: