[MINI-HD] Gnomeo & Juliet (2011) โนมิโอ กับ จูเลียต [720p] [พากย์ไทย 5.1 + เสียงอังกฤษ DTS] [บรรยายไทย + อังกฤษ] [เสียงไทย + ซับไทย] [PANDAFILE]

2

โหลดหนัง Gnomeo & Juliet (2011) โนมิโอ กับ จูเลียต

Gnomeo & Juliet | February 11, 2011 (United States) Summary: Separated by a garden fence and a feud, are blue gnomes on one side and red gnomes on the other. This doesn't stop blue Gnomeo and red Juliet from falling in love with each other. Do they ha... Read all
Countries: United Kingdom, Canada, United StatesLanguages: English, Japanese, Spanish, German

เรื่องย่อ Gnomeo & Juliet (2011) โนมิโอ กับ จูเลียต

“Gnomeo & Juliet” แอนิมเชั่นเรื่องล่าสุดของค่าย Touchstone Picture ดัดแปลงมาจากนิยายรักอมตะสุดคลาสสิคของ Shakespeare อย่าง Romeo & Juliet ซึ่งจะมาในรูปแบบสงครามแห่งความรักที่สุดแสนจะวุ่นวายและตลกโปกฮา เรื่องราวของตัวการ์ตูนที่มีชีวิต Gnomeo (ให้เสียงพากษ์โดย James McAvoy) และ Juliet (ให้เสียงพากษ์โดย Emily Blunt) เพื่อบ้านที่ไม่ค่อยจะลงรอยกันสักเท่าไหร่ แต่แล้ววันนึงก็ได้มีการแข่งขันขับรถตัดหญ้า แล้วการแข่งขันในครั้งนี้จะทำให้ทั้งคู่เข้าใจกันได้หรือไม่ !! เอาใจช่วยกันได้ใน Gnomeo and Juliet

Complete name : [MINI-HD]_Gnomeo.and.Juliet.2011.720p.DTS.x264.AC.Th.x264.One2loadup.com.mkv
Format : Matroska
Format version : Version 4 / Version 2
File size : 2.83 GiB
Duration : 1 h 23 min
Overall bit rate : 4 837 kb/s
Encoded date : UTC 2010-02-22 21:41:31
Writing application : mkvmerge v5.9.0 (‘On The Loose’) built on Dec 9 2012 15:37:01
Writing library : libebml v1.3.0 + libmatroska v1.4.0

Video
ID : 1
Format : AVC
Format/Info : Advanced Video Codec
Format profile : [email protected]
Format settings, CABAC : Yes
Format settings, RefFrames : 3 frames
Muxing mode : Header stripping
Codec ID : V_MPEG4/ISO/AVC
Duration : 1 h 23 min
Bit rate : 3 000 kb/s
Width : 1 280 pixels
Height : 720 pixels
Display aspect ratio : 1.85:1
Frame rate mode : Constant
Frame rate : 24.000 FPS
Color space : YUV
Chroma subsampling : 4:2:0
Bit depth : 8 bits
Scan type : Progressive
Bits/(Pixel*Frame) : 0.136
Stream size : 1.71 GiB (60%)
Title : GNOMEO AND JULIET (720P)
Writing library : x264 core 94
Encoding settings : cabac=1 / ref=3 / deblock=1:0:0 / analyse=0x3:0x133 / me=hex / subme=7 / psy=1 / psy_rd=1.00:0.00 / mixed_ref=1 / me_range=16 / chroma_me=1 / trellis=1 / 8x8dct=1 / cqm=0 / deadzone=21,11 / fast_pskip=1 / chroma_qp_offset=-2 / threads=8 / sliced_threads=0 / nr=0 / decimate=1 / interlaced=0 / constrained_intra=0 / bframes=3 / b_pyramid=1 / b_adapt=2 / b_bias=0 / direct=3 / weightb=1 / weightp=2 / keyint=240 / keyint_min=24 / scenecut=40 / intra_refresh=0 / rc_lookahead=40 / rc=abr / mbtree=1 / bitrate=3000 / ratetol=0.2 / qcomp=0.60 / qpmin=10 / qpmax=51 / qpstep=4 / ip_ratio=1.40 / aq=1:1.00
Language : English
Default : Yes
Forced : No

Audio #1
ID : 2
Format : DTS
Format/Info : Digital Theater Systems
Mode : 16
Format settings, Endianness : Big
Muxing mode : Header stripping
Codec ID : A_DTS
Duration : 1 h 23 min
Bit rate mode : Constant
Bit rate : 1 509 kb/s
Channel(s) : 6 channels
Channel positions : Front: L C R, Side: L R, LFE
Sampling rate : 48.0 kHz
Frame rate : 93.750 FPS (512 SPF)
Bit depth : 24 bits
Compression mode : Lossy
Stream size : 905 MiB (31%)
Title : ENG DTS BY KAI
Language : English
Default : Yes
Forced : No

Audio #2
ID : 3
Format : AC-3
Format/Info : Audio Coding 3
Mode : Dolby Digital
Format settings, Endianness : Big
Muxing mode : Header stripping
Codec ID : A_AC3
Duration : 1 h 23 min
Bit rate mode : Constant
Bit rate : 320 kb/s
Channel(s) : 2 channels
Channel positions : Front: L R
Sampling rate : 48.0 kHz
Frame rate : 31.250 FPS (1536 SPF)
Bit depth : 16 bits
Compression mode : Lossy
Stream size : 192 MiB (7%)
Title : Tha AC3 – 320 Kbps BY KAI
Language : Thai
Service kind : Complete Main
Default : No
Forced : No

Text #1
ID : 4
Format : VobSub
Muxing mode : zlib
Codec ID : S_VOBSUB
Codec ID/Info : Picture based subtitle format used on DVDs
Title : English BT.1080p BY KAI
Language : English
Default : No
Forced : No

Text #2
ID : 5
Format : VobSub
Muxing mode : zlib
Codec ID : S_VOBSUB
Codec ID/Info : Picture based subtitle format used on DVDs
Title : English 1080p BY KAI
Language : English
Default : No
Forced : No

Text #3
ID : 6
Format : VobSub
Muxing mode : zlib
Codec ID : S_VOBSUB
Codec ID/Info : Picture based subtitle format used on DVDs
Title : Thai BT.1080p BY KAI
Language : Thai
Default : Yes
Forced : No

Text #4
ID : 7
Format : VobSub
Muxing mode : zlib
Codec ID : S_VOBSUB
Codec ID/Info : Picture based subtitle format used on DVDs
Title : Thai 1080p BY KAI
Language : Thai
Default : No
Forced : No

DOWNLOAD


PART01 |||| PART02 |||| PART03

PART01 |||| PART02 |||| PART03

PART01 |||| PART02 |||| PART03

PART01 |||| PART02 |||| PART03


2 Comments
  1. แหม่มโพธิ์ดํา

    แอดมินครับ ผมอยากได้เรื่อง Tarzan (1999) แบบอนิเมชั่น 2D เวอร์ชั่นค่ายดิสนี่ย์ ช่วงนี้ผมหาหนังให้หลานดูและอยากดูเองด้วยขอรับ ขอภาคแรกก็พอครับ ถ้าได้ครบก็ดีครับ ขอบคุณครับ

    1. Admin
      Admin says

      ฮ๊ะ ถ้ามีนะ เดี่ยวลงให้

Leave A Reply

อีเมล์ของคุณจะไม่แสดงให้เห็น Your email address will not be published.

%d bloggers like this: