[MINI-HD] Fortress: Sniper’s Eye (2022) ชำระแค้นป้อมนรก ปฏิบัติการซุ่มโจมตี [1080p] [พากย์ไทย 2.0 + เสียงอังกฤษ 5.1] [บรรยายไทย + อังกฤษ] [เสียงไทย + ซับไทย] [USERLOAD]

0

โหลดหนัง Fortress: Sniper’s Eye (2022) ชำระแค้นป้อมนรก ปฏิบัติการซุ่มโจมตี

Fortress: Sniper's Eye | April 29, 2022 (United States) Summary: Story revolves around a top-secret resort for retired U.S. intelligence officers.
Countries: United States

เรื่องย่อ Fortress: Sniper’s Eye (2022) ชำระแค้นป้อมนรก ปฏิบัติการซุ่มโจมตี

โรเบิร์ต คาร์เตอร์ ไมเคิลส์ เจ้าหน้าที่ซีไอเอที่เกษียณอายุแล้วและพอล ลูกชายของเขามุ่งมั่นที่จะสร้างความสัมพันธ์ขึ้นใหม่หลังจากการเผชิญหน้าครั้งยิ่งใหญ่ครั้งสุดท้ายในการปกป้องฐานลับที่มีความปลอดภัยสูง นั่นคือป้อมปราการ เมื่อเมลิสสา ภรรยาของพอลถูกลักพาตัวไปเขาและโรเบิร์ตเริ่มการเดินทางที่อันตรายผ่านภูเขาที่ขรุขระด้วยความหวังว่าจะช่วยชีวิตเธอก่อนหมดเวลา!!!

Complete name : [MINI-HD]_Fortress.Snipers.Eye.2022.1080p.WEB-DL.AC3.x264.THM.One2loadup.com.mkv
Format : Matroska
Format version : Version 4
File size : 5.17 GiB
Duration : 1 h 37 min
Overall bit rate : 7 622 kb/s
Movie name : [MINI-HD]_Fortress.Snipers.Eye.2022.1080p.WEB-DL.AC3.x264.THM.One2loadup.com
Encoded date : UTC 2022-10-23 10:36:40
Writing application : mkvmerge v45.0.0 (‘Heaven in Pennies’) 64-bit
Writing library : libebml v1.3.10 + libmatroska v1.5.2

Video
ID : 1
Format : AVC
Format/Info : Advanced Video Codec
Format profile : [email protected]
Format settings : CABAC / 5 Ref Frames
Format settings, CABAC : Yes
Format settings, Reference : 5 frames
Codec ID : V_MPEG4/ISO/AVC
Duration : 1 h 37 min
Bit rate : 6 757 kb/s
Width : 1 912 pixels
Height : 800 pixels
Display aspect ratio : 2.40:1
Frame rate mode : Constant
Frame rate : 23.976 (24000/1001) FPS
Color space : YUV
Chroma subsampling : 4:2:0
Bit depth : 8 bits
Scan type : Progressive
Bits/(Pixel*Frame) : 0.184
Stream size : 4.59 GiB (89%)
Title : [MINI-HD]_Fortress.Snipers.Eye.2022.1080p.WEB-DL.AC3.x264.THM.One2loadup.com
Language : English
Default : Yes
Forced : No
Color range : Limited
Color primaries : BT.709
Transfer characteristics : BT.709
Matrix coefficients : BT.709

Audio #1
ID : 2
Format : AC-3
Format/Info : Audio Coding 3
Commercial name : Dolby Digital
Codec ID : A_AC3
Duration : 1 h 37 min
Bit rate mode : Constant
Bit rate : 384 kb/s
Channel(s) : 2 channels
Channel layout : L R
Sampling rate : 48.0 kHz
Frame rate : 31.250 FPS (1536 SPF)
Compression mode : Lossy
Stream size : 267 MiB (5%)
Title : Thai DD 2.0 Master
Language : Thai
Service kind : Complete Main
Default : Yes
Forced : No

Audio #2
ID : 3
Format : AC-3
Format/Info : Audio Coding 3
Commercial name : Dolby Digital
Codec ID : A_AC3
Duration : 1 h 37 min
Bit rate mode : Constant
Bit rate : 384 kb/s
Channel(s) : 6 channels
Channel layout : L R C LFE Ls Rs
Sampling rate : 48.0 kHz
Frame rate : 31.250 FPS (1536 SPF)
Compression mode : Lossy
Stream size : 267 MiB (5%)
Title : English DD 5.1
Language : English
Service kind : Complete Main
Default : No
Forced : No

Text #1
ID : 4
Format : PGS
Codec ID : S_HDMV/PGS
Codec ID/Info : Picture based subtitle format used on BDs/HD-DVDs
Duration : 1 h 29 min
Bit rate : 37.2 kb/s
Count of elements : 2218
Stream size : 24.0 MiB (0%)
Title : Thai PGS
Language : Thai
Default : Yes
Forced : No

Text #2
ID : 5
Format : VobSub
Codec ID : S_VOBSUB
Codec ID/Info : Picture based subtitle format used on DVDs
Duration : 1 h 29 min
Bit rate : 9 323 b/s
Count of elements : 1109
Stream size : 6.00 MiB (0%)
Title : Thai VobSub
Language : Thai
Default : No
Forced : No

Text #3
ID : 6
Format : PGS
Codec ID : S_HDMV/PGS
Codec ID/Info : Picture based subtitle format used on BDs/HD-DVDs
Duration : 1 h 29 min
Bit rate : 37.3 kb/s
Count of elements : 2218
Stream size : 24.0 MiB (0%)
Title : Thai PGS Out
Language : Thai
Default : No
Forced : No

Text #4
ID : 7
Format : VobSub
Codec ID : S_VOBSUB
Codec ID/Info : Picture based subtitle format used on DVDs
Duration : 1 h 29 min
Bit rate : 9 325 b/s
Count of elements : 1109
Stream size : 6.00 MiB (0%)
Title : Thai VobSub Out
Language : Thai
Default : No
Forced : No

Text #5
ID : 8
Format : VobSub
Codec ID : S_VOBSUB
Codec ID/Info : Picture based subtitle format used on DVDs
Duration : 1 h 29 min
Bit rate : 9 305 b/s
Count of elements : 1109
Stream size : 5.99 MiB (0%)
Title : Thai VobSub [Yellow]
Language : Thai
Default : No
Forced : No

Text #6
ID : 9
Format : UTF-8
Codec ID : S_TEXT/UTF8
Codec ID/Info : UTF-8 Plain Text
Duration : 1 h 29 min
Bit rate : 49 b/s
Count of elements : 1149
Stream size : 32.1 KiB (0%)
Title : English SRT
Language : English
Default : No
Forced : No

DOWNLOAD


PART01 |||| PART02 |||| PART03 |||| PART04 |||| PART05 |||| PART06

PART01 |||| PART02 |||| PART03 |||| PART04 |||| PART05 |||| PART06

PART01 |||| PART02 |||| PART03 |||| PART04 |||| PART05 |||| PART06

PART01 |||| PART02 |||| PART03 |||| PART04 |||| PART05 |||| PART06

PART01 |||| PART02 |||| PART03 |||| PART04 |||| PART05 |||| PART06


Leave A Reply

อีเมล์ของคุณจะไม่แสดงให้เห็น Your email address will not be published.

%d bloggers like this: