[MINI-HD] Fist of Stardom (2019) สายบู๊ ฟัด จัด หนัก [1080p] [พากย์ไทย 2.0] [ไม่มีบรรยาย] [หนังไทย] [เสียงไทยมาสเตอร์] [OPENLOAD]

0

Fist of Stardom (2019)

โหลดหนัง Fist of Stardom (2019) สายบู๊ ฟัด จัด หนัก

เรื่องย่อ Fist of Stardom (2019) สายบู๊ ฟัด จัด หนัก

ทองพูน หนุ่มบ้านนอกผู้มีพรสวรรค์ด้านการต่อสู้ ที่ฝึกหัดเองจากหนังกลางแปลงที่เขาทำงานอยู่ เขาเดินทางเข้ากรุงเทพเพื่อเดินตามฝันที่จะเป็นพระเอกหนังบู๊ จนได้เจอกับ ทีมสร้างหนังตกอับที่ถูกปฏิเสธมาเช่นกัน พวกเขาวางแผนจะสร้างหนังโดยใช้เงินของทองพูนที่อวดร่ำอวดรวยไว้อย่างสวยหรู และจะให้หงษ์ ราชินีบู๊ค้างฟ้า มาเป็นนางเอกให้ทองพูน แต่แล้วทุกอย่างแค่เริ่มต้นก็ต้องพังลงเพราะความจริงทองพูนไม่มีเงินแบบที่โม้ไว้ ทองพูนคิดวิธีหาเงินด้วยการพนันมวย แต่สุดท้ายกลับต้องจับพลัดจับผลูกลายเป็นนักมวยชื่อดังเพียงชั่วข้ามคืน ทองพูนจะเลือกเส้นทางไหน ระหว่างนักแสดงจอมบู๊หรือแชมป์โลกมวยกรง!!!

Complete name : [MINI-HD]_Fist.of.Stardom.2019.1080p.Web-DL.AAC.x264.One2loadup.com.mkv
Format : Matroska
Format version : Version 4
File size : 1.48 GiB
Duration : 1 h 58 min
Overall bit rate : 1 798 kb/s
Movie name : [MINI-HD]_Fist.of.Stardom.2019.1080p.Web-DL.AAC.x264.One2loadup.com
Encoded date : UTC 2019-08-30 05:19:22
Writing application : mkvmerge v36.0.0 (‘Is That Jazz?’) 64-bit
Writing library : libebml v1.3.9 + libmatroska v1.5.2

Video
ID : 1
Format : AVC
Format/Info : Advanced Video Codec
Format profile : [email protected]
Format settings : CABAC / 2 Ref Frames
Format settings, CABAC : Yes
Format settings, ReFrames : 2 frames
Codec ID : V_MPEG4/ISO/AVC
Duration : 1 h 58 min
Bit rate : 1 670 kb/s
Width : 1 920 pixels
Height : 1 080 pixels
Display aspect ratio : 16:9
Frame rate mode : Constant
Frame rate : 25.000 FPS
Color space : YUV
Chroma subsampling : 4:2:0
Bit depth : 8 bits
Scan type : Progressive
Bits/(Pixel*Frame) : 0.032
Stream size : 1.38 GiB (93%)
Title : [MINI-HD]_Fist.of.Stardom.2019.1080p.Web-DL.AAC.x264.One2loadup.com
Writing library : x264 core 155 r2901 7d0ff22
Default : Yes
Forced : No
Color range : Limited
Color primaries : BT.709
Transfer characteristics : BT.709
Matrix coefficients : BT.709

Audio
ID : 2
Format : AAC LC
Format/Info : Advanced Audio Codec Low Complexity
Codec ID : A_AAC-2
Duration : 1 h 58 min
Bit rate : 126 kb/s
Channel(s) : 2 channels
Channel layout : L R
Sampling rate : 44.1 kHz
Frame rate : 43.066 FPS (1024 SPF)
Compression mode : Lossy
Stream size : 106 MiB (7%)
Default : Yes
Forced : No

DOWNLOAD


PART01 |||| PART02

PART01 |||| PART02

PART01 |||| PART02

PART01 |||| PART02


Leave A Reply

Your email address will not be published.

%d bloggers like this: