[MINI-HD] Drive Angry (2011) ซิ่งโคตรเทพล้างบัญชีชั่ว [720p] [พากย์ไทย 5.1 + เสียงอังกฤษ 5.1] [บรรยายไทย + อังกฤษ] [เสียงไทย + ซับไทย] [OPENLOAD]

0

Drive Angry (2011)

โหลดหนัง Drive Angry (2011) ซิ่งโคตรเทพล้างบัญชีชั่ว

Drive Angry (2011) 1h 44min | Action, Crime, Fantasy | 24 February 2011 (Netherlands) Summary: A vengeful father escapes from hell and chases after the men who killed his daughter and kidnapped his granddaughter.
Countries: USALanguages: English

เรื่องย่อ Drive Angry (2011) ซิ่งโคตรเทพล้างบัญชีชั่ว

เมื่อลูกสาวของ มิลตัน (นิโคลัส เคจ) ถูกฆาตกรรม และแย่งชิงหลานสาวตัวน้อยไป เพื่อทำการสังเวยในคืนจันทร์เต็มดวงที่จะมาถึงในอีก 3 วัน ภารกิจนี้จึงตีตราด่วนสุดๆ มิลตันร่วมมือกับ ไพเพอร์ (แอมเบอร์ เฮิร์ด) บริกรสาวสุดสวยที่ลงทุนขโมยรถของแฟนเก่าเพื่อช่วยมิล ตัน พวกเขาต้องรีบตามล่า โจนาห์ คิง หัวหน้าลัทธิ (บิลลี เบิร์ก) ที่เชื่อว่าชะตากรรมของเขาคือใช้เด็กทารกปลดปล่อยนรกขึ้นสู่โลกแต่ลัทธิกระหายเลือดนั้นเป็นเพียงแค่หนึ่งในศัตรูของมิลตันเท่านั้น ตำรวจเองก็ยังตามล่าเขาอยู่ และที่ร้ายสุดคือนักฆ่าที่มีฉายาว่า นัก(คิด)บัญชี (วิลเลียม ฟิชต์เนอร์) ที่ถูกส่งมาโดยปิศาจเพื่อนำมิลตันมายังนรก นักฆ่าต้องไล่ตามมิลตันอย่างไม่ลดละเพื่อให้เป้าหมายสำเร็จ มิลตันจึงต้องใช้พลังของเขาและรถคันโตเพื่อจัดการเจ้าฆาตกร ก่อนที่หนทางแห่งการไถ่บาปจะหมดสิ้น

Complete name : [MINI-HD]_Drive.Angry.2011.720p.BluRay.AC3.x264.One2loadup.com.mkv
Format : Matroska
Format version : Version 2
File size : 3.35 GiB
Duration : 1 h 44 min
Overall bit rate mode : Variable
Overall bit rate : 4 585 kb/s
Movie name : [MINI-HD]_Drive.Angry.2011.720p.BluRay.AC3.x264.One2loadup.com
Encoded date : UTC 2012-01-17 11:25:09
Writing application : mkvmerge v3.4.0 (‘Rapunzel’) built on May 15 2010 09:38:20
Writing library : libebml v0.8.0 + libmatroska v0.9.0

Video
ID : 1
Format : AVC
Format/Info : Advanced Video Codec
Format profile : [email protected]
Format settings : CABAC / 3 Ref Frames
Format settings, CABAC : Yes
Format settings, ReFrames : 3 frames
Codec ID : V_MPEG4/ISO/AVC
Duration : 1 h 44 min
Bit rate mode : Variable
Bit rate : 3 428 kb/s
Maximum bit rate : 25.0 Mb/s
Width : 1 280 pixels
Height : 720 pixels
Display aspect ratio : 16:9
Frame rate mode : Constant
Frame rate : 23.976 (24000/1001) FPS
Color space : YUV
Chroma subsampling : 4:2:0
Bit depth : 8 bits
Scan type : Progressive
Bits/(Pixel*Frame) : 0.155
Stream size : 2.44 GiB (73%)
Title : [MINI-HD]_Drive.Angry.2011.720p.BluRay.AC3.x264.One2loadup.com
Writing library : x264 core 114 r1924 08d04a4
Encoding settings : cabac=1 / ref=3 / deblock=0:0:0 / analyse=0x3:0x133 / me=tesa / subme=10 / psy=1 / psy_rd=1.00:0.00 / mixed_ref=1 / me_range=16 / chroma_me=1 / trellis=2 / 8x8dct=1 / cqm=0 / deadzone=21,11 / fast_pskip=1 / chroma_qp_offset=-2 / threads=9 / sliced_threads=0 / nr=0 / decimate=1 / interlaced=0 / constrained_intra=0 / bframes=3 / b_pyramid=0 / b_adapt=2 / b_bias=0 / direct=1 / weightb=1 / open_gop=0 / weightp=2 / keyint=240 / keyint_min=24 / scenecut=40 / intra_refresh=0 / rc_lookahead=40 / rc=2pass / mbtree=1 / bitrate=3428 / ratetol=1.0 / qcomp=0.60 / qpmin=0 / qpmax=69 / qpstep=4 / cplxblur=20.0 / qblur=0.5 / vbv_maxrate=25000 / vbv_bufsize=25000 / nal_hrd=vbr / ip_ratio=1.40 / aq=1:1.00
Default : No
Forced : No

Audio #1
ID : 2
Format : AC-3
Format/Info : Audio Coding 3
Commercial name : Dolby Digital
Codec ID : A_AC3
Duration : 1 h 44 min
Bit rate mode : Constant
Bit rate : 384 kb/s
Channel(s) : 6 channels
Channel layout : L R C LFE Ls Rs
Sampling rate : 48.0 kHz
Frame rate : 31.250 FPS (1536 SPF)
Bit depth : 16 bits
Compression mode : Lossy
Stream size : 287 MiB (8%)
Language : Thai
Service kind : Complete Main
Default : Yes
Forced : No

Audio #2
ID : 10
Format : AC-3
Format/Info : Audio Coding 3
Commercial name : Dolby Digital
Codec ID : A_AC3
Duration : 1 h 44 min
Bit rate mode : Constant
Bit rate : 384 kb/s
Channel(s) : 6 channels
Channel layout : L R C LFE Ls Rs
Sampling rate : 48.0 kHz
Frame rate : 31.250 FPS (1536 SPF)
Bit depth : 16 bits
Compression mode : Lossy
Stream size : 287 MiB (8%)
Language : English
Service kind : Complete Main
Default : No
Forced : No

Audio #3
ID : 3
Format : AC-3
Format/Info : Audio Coding 3
Commercial name : Dolby Digital
Codec ID : A_AC3
Duration : 1 h 44 min
Bit rate mode : Constant
Bit rate : 384 kb/s
Channel(s) : 6 channels
Channel layout : L R C LFE Ls Rs
Sampling rate : 48.0 kHz
Frame rate : 31.250 FPS (1536 SPF)
Bit depth : 16 bits
Compression mode : Lossy
Stream size : 287 MiB (8%)
Service kind : Complete Main
Default : No
Forced : No

Text #1
ID : 4
Format : VobSub
Muxing mode : zlib
Codec ID : S_VOBSUB
Codec ID/Info : Picture based subtitle format used on DVDs
Title : Thai low [dvd master]
Language : Thai
Default : No
Forced : No

Text #2
ID : 5
Format : VobSub
Muxing mode : zlib
Codec ID : S_VOBSUB
Codec ID/Info : Picture based subtitle format used on DVDs
Title : Thai [dvd master]
Language : Thai
Default : No
Forced : No

Text #3
ID : 6
Format : VobSub
Muxing mode : zlib
Codec ID : S_VOBSUB
Codec ID/Info : Picture based subtitle format used on DVDs
Title : English low [dvd master]
Language : English
Default : No
Forced : No

Text #4
ID : 7
Format : VobSub
Muxing mode : zlib
Codec ID : S_VOBSUB
Codec ID/Info : Picture based subtitle format used on DVDs
Title : English 1080p
Language : English
Default : No
Forced : No

Text #5
ID : 8
Format : VobSub
Muxing mode : zlib
Codec ID : S_VOBSUB
Codec ID/Info : Picture based subtitle format used on DVDs
Title : English [dvd master]
Language : English
Default : No
Forced : No

Text #6
ID : 9
Format : UTF-8
Codec ID : S_TEXT/UTF8
Codec ID/Info : UTF-8 Plain Text
Title : English SRT
Language : English
Default : No
Forced : No

DOWNLOAD


PART01 |||| PART02 |||| PART03 |||| PART04

PART01 |||| PART02 |||| PART03 |||| PART04

PART01 |||| PART02 |||| PART03 |||| PART04

PART01 |||| PART02 |||| PART03 |||| PART04


Leave A Reply

Your email address will not be published.