[Mini-HD] The Dreamers (2003) รักตามฝัน ไม่มีวันสลาย [Original Uncut] [1080p] [พากย์ไทย 5.1 + เสียงอังกฤษ DTS] [บรรยายไทย + อังกฤษ] [เสียงไทย + ซับไทย] [PANDAFILE]

5

โหลดหนัง The Dreamers (2003) รักตามฝัน ไม่มีวันสลาย

The Dreamers | February 20, 2004 (United States) Summary: A young American studying in Paris in 1968 strikes up a friendship with a French brother and sister. Set against the background of the '68 Paris student riots.
Countries: United Kingdom, Italy, France, United StatesLanguages: English, French

เรื่องย่อ The Dreamers (2003) รักตามฝัน ไม่มีวันสลาย

เป็นภาพยนตร์เรื่องหนึ่งที่ถูกพูดถึงอย่างมากในปี 2003 หนังเรื่องนี้ดัดแปลงมาจากนวนิยาย The Holy Innocents ของ Gilbert Adair (กิลเบิร์ค อแดร์) สู่เรื่องราวบนจอเงินสุดอื้อฉาว เพราะหนังเรื่องนี้ มีฉากเลิฟซีนแบบโจ๋งครึ้ม เรียกว่าเห็นหมดทุกอณูเนื้อ ทุกรูขุมขน และหนังเรื่องนี้ยังได้รับการโหวตติด 1 ใน 10 หนังที่มีฉากอีโรติกอันน่าจดจำตลอดกาล และงานนี้ที่ผมนำเสนอเป็นตัว Original Uncut ไม่มีการตัดทุกฉากในหนัง เรียกว่าเห็นหมดทุกซีน ทุกฉากครับ

Complete name : [Mini-HD]_The.Dreamers.2003.1080p.BluRay.DTS.x264.THMASTER.One2loadup.com.mkv
Format : Matroska
Format version : Version 4 / Version 2
File size : 3.76 GiB
Duration : 1 h 54 min
Overall bit rate : 4 696 kb/s
Movie name : [Mini-HD]_The.Dreamers.2003.1080p.BluRay.DTS.x264.THMASTER.One2loadup.com
Encoded date : UTC 2014-02-20 00:47:03
Writing application : mkvmerge v6.0.0 (‘Coming Up For Air’) built on Jan 20 2013 09:52:00
Writing library : libebml v1.3.0 + libmatroska v1.4.0

Video
ID : 1
Format : AVC
Format/Info : Advanced Video Codec
Format profile : [email protected]
Format settings, CABAC : Yes
Format settings, RefFrames : 5 frames
Codec ID : V_MPEG4/ISO/AVC
Duration : 1 h 54 min
Bit rate : 2 700 kb/s
Width : 1 920 pixels
Height : 1 080 pixels
Display aspect ratio : 16:9
Frame rate mode : Constant
Frame rate : 24.000 FPS
Color space : YUV
Chroma subsampling : 4:2:0
Bit depth : 8 bits
Scan type : Progressive
Bits/(Pixel*Frame) : 0.054
Stream size : 2.12 GiB (56%)
Title : [Mini-HD]_The.Dreamers.2003.1080p.BluRay.DTS.x264.THMASTER.One2loadup.com
Writing library : x264 core 116 r2019M 9cc407d
Encoding settings : cabac=1 / ref=6 / deblock=1:0:0 / analyse=0x3:0x133 / me=hex / subme=7 / psy=1 / psy_rd=1.00:0.20 / mixed_ref=1 / me_range=16 / chroma_me=1 / trellis=1 / 8x8dct=1 / cqm=0 / deadzone=21,11 / fast_pskip=1 / chroma_qp_offset=-3 / threads=8 / sliced_threads=0 / nr=0 / decimate=1 / interlaced=0 / bluray_compat=0 / constrained_intra=0 / bframes=3 / b_pyramid=1 / b_adapt=2 / b_bias=0 / direct=3 / weightb=1 / open_gop=0 / weightp=2 / keyint=240 / keyint_min=24 / scenecut=40 / intra_refresh=0 / rc_lookahead=40 / rc=2pass / mbtree=1 / bitrate=2700 / ratetol=1.0 / qcomp=0.60 / qpmin=10 / qpmax=51 / qpstep=4 / cplxblur=20.0 / qblur=0.5 / vbv_maxrate=31250 / vbv_bufsize=62500 / nal_hrd=none / ip_ratio=1.40 / aq=1:1.00
Language : English
Default : Yes
Forced : No

Audio #1
ID : 2
Format : AC-3
Format/Info : Audio Coding 3
Format settings, Endianness : Big
Codec ID : A_AC3
Duration : 1 h 54 min
Bit rate mode : Constant
Bit rate : 448 kb/s
Channel(s) : 6 channels
Channel positions : Front: L C R, Side: L R, LFE
Sampling rate : 48.0 kHz
Frame rate : 31.250 FPS (1536 SPF)
Bit depth : 16 bits
Compression mode : Lossy
Stream size : 367 MiB (10%)
Title : TH 5.1
Language : Thai
Service kind : Complete Main
Default : Yes
Forced : Yes

Audio #2
ID : 3
Format : DTS
Format/Info : Digital Theater Systems
Mode : 16
Format settings, Endianness : Big
Codec ID : A_DTS
Duration : 1 h 54 min
Bit rate mode : Constant
Bit rate : 1 509 kb/s
Channel(s) : 6 channels
Channel positions : Front: L C R, Side: L R, LFE
Sampling rate : 48.0 kHz
Frame rate : 93.750 FPS (512 SPF)
Bit depth : 24 bits
Compression mode : Lossy
Stream size : 1.21 GiB (32%)
Title : EN DTS
Language : English
Default : No
Forced : No

Text #1
ID : 4
Format : VobSub
Codec ID : S_VOBSUB
Codec ID/Info : Picture based subtitle format used on DVDs
Title : TH DVD
Language : Thai
Default : No
Forced : No

Text #2
ID : 5
Format : VobSub
Codec ID : S_VOBSUB
Codec ID/Info : Picture based subtitle format used on DVDs
Title : TH 480P
Language : Thai
Default : No
Forced : No

Text #3
ID : 6
Format : VobSub
Codec ID : S_VOBSUB
Codec ID/Info : Picture based subtitle format used on DVDs
Title : TH 1080P
Language : Thai
Default : Yes
Forced : Yes

Text #4
ID : 7
Format : UTF-8
Codec ID : S_TEXT/UTF8
Codec ID/Info : UTF-8 Plain Text
Title : EN SRT
Language : English
Default : No
Forced : No

Text #5
ID : 8
Format : UTF-8
Codec ID : S_TEXT/UTF8
Codec ID/Info : UTF-8 Plain Text
Title : TH SRT
Language : Thai
Default : No
Forced : No

Text #6
ID : 9
Format : PGS
Codec ID : S_HDMV/PGS
Codec ID/Info : Picture based subtitle format used on BDs/HD-DVDs
Title : TH PGS
Language : Thai
Default : No
Forced : No

Menu
00:00:00.000 : en:00:00:00.000
00:08:58.458 : en:00:08:58.458
00:24:49.083 : en:00:24:49.083
00:32:30.000 : en:00:32:30.000
00:39:36.542 : en:00:39:36.542
00:49:00.250 : en:00:49:00.250
00:59:19.583 : en:00:59:19.583
01:10:03.333 : en:01:10:03.333
01:16:11.083 : en:01:16:11.083
01:24:46.417 : en:01:24:46.417
01:29:57.667 : en:01:29:57.667
01:37:11.958 : en:01:37:11.958
01:40:41.792 : en:01:40:41.792
01:44:23.083 : en:01:44:23.083
01:49:25.375 : en:01:49:25.375

DOWNLOAD


PART01 |||| PART02 |||| PART03 |||| PART04

PART01 |||| PART02 |||| PART03 |||| PART04

PART01 |||| PART02 |||| PART03 |||| PART04

PART01 |||| PART02 |||| PART03 |||| PART04

PART01 |||| PART02 |||| PART03 |||| PART04


5 Comments
  1. Man Narak
    Man Narak says

    Thank You

  2. Foggee Graphic
    Foggee Graphic says

    ลิ้งโดนลบไปแล้วครับ โหลดไม่ได้

    1. Admin
      Admin says

      แก้ไขเรียบร้อยฮ๊ะ

  3. Kaka Yuyu
    Kaka Yuyu says

    โหลดไม่ได้ครับ

    1. Admin
      Admin says

      แก้ไขเรียบร้อยฮ๊ะ

Leave A Reply

อีเมล์ของคุณจะไม่แสดงให้เห็น Your email address will not be published.

%d bloggers like this: