[MINI-HD] DJ Cinderella (2019) ดีเจซินเดอร์เรลล่า [1080p] [NETFLIX] [พากย์ไทย 5.1 + เสียงโปรตุเกส 5.1 + เสียงอังกฤษ 5.1] [บรรยายไทย + อังกฤษ] [เสียงไทย + ซับไทย] [PANDAFILE]

0

โหลดหนัง DJ Cinderella (2019) ดีเจซินเดอร์เรลล่า

DJ Cinderella (2019) 1h 35min | Family, Music, Romance | 28 February 2019 (Brazil) Summary: A contemporary take on Cinderella's tale.
Countries: BrazilLanguages: Portuguese

เรื่องย่อ DJ Cinderella (2019) ดีเจซินเดอร์เรลล่า

ดีเจสาวน้อยผู้พกความมั่นใจเกินร้อยและพลาดหวังจากความรักมามุ่งมั่นที่จะเลือกทางเดินของตัวเอง จนกระทั่งนักร้องหนุ่มเพลงป๊อปขวัญใจสาวๆ มาหลงเสน่ห์ที่น่าค้นหาในตัวเธอ

Complete name : [MINI-HD]_DJ.Cinderella.2019.1080p.NF.WEB-DL.AC3.One2loadup.com.mkv
Format : Matroska
Format version : Version 4
File size : 4.63 GiB
Duration : 1 h 36 min
Overall bit rate : 6 853 kb/s
Movie name : [MINI-HD]_DJ.Cinderella.2019.1080p.WEB-DL.AC3.One2loadup.com
Encoded date : UTC 2020-07-18 14:47:30
Writing application : mkvmerge v48.0.0 (‘Fortress Around Your Heart’) 64-bit
Writing library : libebml v1.4.0 + libmatroska v1.6.0

Video
ID : 1
Format : AVC
Format/Info : Advanced Video Codec
Format profile : [email protected]
Format settings : CABAC / 3 Ref Frames
Format settings, CABAC : Yes
Format settings, ReFrames : 3 frames
Codec ID : V_MPEG4/ISO/AVC
Duration : 1 h 36 min
Bit rate : 4 860 kb/s
Width : 1 920 pixels
Height : 1 080 pixels
Display aspect ratio : 16:9
Frame rate mode : Constant
Frame rate : 23.976 (24000/1001) FPS
Color space : YUV
Chroma subsampling : 4:2:0
Bit depth : 8 bits
Scan type : Progressive
Bits/(Pixel*Frame) : 0.098
Stream size : 3.28 GiB (71%)
Title : [MINI-HD]_DJ.Cinderella.2019.1080p.WEB-DL.AC3.One2loadup.com
Language : Portuguese
Default : Yes
Forced : No

Audio #1
ID : 2
Format : E-AC-3
Format/Info : Enhanced AC-3
Commercial name : Dolby Digital Plus
Codec ID : A_EAC3
Duration : 1 h 36 min
Bit rate mode : Constant
Bit rate : 640 kb/s
Channel(s) : 6 channels
Channel layout : L R C LFE Ls Rs
Sampling rate : 48.0 kHz
Frame rate : 31.250 FPS (1536 SPF)
Compression mode : Lossy
Stream size : 443 MiB (9%)
Title : AC-3 Portuguese
Language : Portuguese
Service kind : Complete Main
Default : Yes
Forced : No

Audio #2
ID : 3
Format : E-AC-3
Format/Info : Enhanced AC-3
Commercial name : Dolby Digital Plus
Codec ID : A_EAC3
Duration : 1 h 36 min
Bit rate mode : Constant
Bit rate : 640 kb/s
Channel(s) : 6 channels
Channel layout : L R C LFE Ls Rs
Sampling rate : 48.0 kHz
Frame rate : 31.250 FPS (1536 SPF)
Compression mode : Lossy
Stream size : 443 MiB (9%)
Title : AC-3 English
Language : English
Service kind : Complete Main
Default : No
Forced : No

Audio #3
ID : 4
Format : E-AC-3
Format/Info : Enhanced AC-3
Commercial name : Dolby Digital Plus
Codec ID : A_EAC3
Duration : 1 h 36 min
Bit rate mode : Constant
Bit rate : 640 kb/s
Channel(s) : 6 channels
Channel layout : L R C LFE Ls Rs
Sampling rate : 48.0 kHz
Frame rate : 31.250 FPS (1536 SPF)
Compression mode : Lossy
Stream size : 443 MiB (9%)
Title : AC-3 Thai
Language : Thai
Service kind : Complete Main
Default : No
Forced : No

Text #1
ID : 5
Format : VobSub
Muxing mode : zlib
Codec ID : S_VOBSUB
Codec ID/Info : Picture based subtitle format used on DVDs
Duration : 1 h 30 min
Bit rate : 16.5 kb/s
Count of elements : 1440
Stream size : 10.7 MiB (0%)
Title : Sub English 1080p
Language : English
Default : Yes
Forced : No

Text #2
ID : 6
Format : UTF-8
Codec ID : S_TEXT/UTF8
Codec ID/Info : UTF-8 Plain Text
Duration : 1 h 30 min
Bit rate : 84 b/s
Count of elements : 1440
Stream size : 56.0 KiB (0%)
Title : Sub English SRT
Language : English
Default : No
Forced : No

Text #3
ID : 7
Format : PGS
Muxing mode : zlib
Codec ID : S_HDMV/PGS
Codec ID/Info : Picture based subtitle format used on BDs/HD-DVDs
Duration : 1 h 30 min
Bit rate : 53.1 kb/s
Count of elements : 2880
Stream size : 34.4 MiB (1%)
Title : Sub English PGS
Language : English
Default : No
Forced : No

Text #4
ID : 8
Format : VobSub
Muxing mode : zlib
Codec ID : S_VOBSUB
Codec ID/Info : Picture based subtitle format used on DVDs
Duration : 1 h 30 min
Bit rate : 18.5 kb/s
Count of elements : 1441
Stream size : 12.0 MiB (0%)
Title : Sub Thai 1080p
Language : Thai
Default : No
Forced : No

Text #5
ID : 9
Format : UTF-8
Codec ID : S_TEXT/UTF8
Codec ID/Info : UTF-8 Plain Text
Duration : 1 h 30 min
Bit rate : 208 b/s
Count of elements : 1441
Stream size : 139 KiB (0%)
Title : Sub Thai SRT
Language : Thai
Default : No
Forced : No

Text #6
ID : 10
Format : PGS
Muxing mode : zlib
Codec ID : S_HDMV/PGS
Codec ID/Info : Picture based subtitle format used on BDs/HD-DVDs
Duration : 1 h 30 min
Bit rate : 58.8 kb/s
Count of elements : 2882
Stream size : 38.2 MiB (1%)
Title : Sub Thai PGS
Language : Thai
Default : No
Forced : No

DOWNLOAD


PART01 |||| PART02 |||| PART03 |||| PART04 |||| PART05

PART01 |||| PART02 |||| PART03 |||| PART04 |||| PART05

PART01 |||| PART02 |||| PART03 |||| PART04 |||| PART05

PART01 |||| PART02 |||| PART03 |||| PART04 |||| PART05 

PART01 |||| PART02 |||| PART03 |||| PART04 |||| PART05



Disable Comments
%d bloggers like this: