[MINI-HD] Ditto (The Agreement) (2022) ปาฏิหาริย์รักข้ามเวลา [1080p] [พากย์ไทย 2.0 + เสียงเกาหลี 5.1] [บรรยายอังกฤษ] [เสียงไทยมาสเตอร์ + ซับอังกฤษ] [PANDAFILE]

0

โหลดหนัง Ditto (The Agreement) (2022) ปาฏิหาริย์รักข้ามเวลา

Ditto | November 16, 2022 (South Korea) Summary: Yong hears a stranger's voice from the future, connecting them to each other and sharing their love stories.
Countries: South KoreaLanguages: Korean

เรื่องย่อ Ditto (The Agreement) (2022) ปาฏิหาริย์รักข้ามเวลา

เรื่องราวของ ‘คิมยง’ (ยอจินกู) นักศึกษาคณะวิศวกรรมเครื่องกล เขาเข้าศึกษาในมหาวิทยาลัยตั้งแต่ปี 1995 แต่เขาพักการเรียนเพื่อไปเกณฑ์ทหาร หลังจากปลดประจำการในปี 1999 เขาได้กลับมาเป็นนักศึกษาในมหาวิทยาลัยอีกครั้ง และได้พบกับ ‘ฮันซอล’ รักแรกของเขา ขณะนั้น เขาสามารถติดต่อสื่อสารกับ ‘มูนี’ ซึ่งอาศัยอยู่ในยุคปัจจุบัน โดยเธอเข้าศึกษาในสาขาสังคมวิทยาในปี 2021 ยงและมูนี ซึ่งอาศัยอยู่กันคนละช่วงเวลา ได้ติดต่อสื่อสารและแลกเปลี่ยนเรื่องราวกัน จนเกิดเป็นเรื่องราวปาฏิหารย์ที่อยู่เหนือมิติเวลา นำโดย ‘ยอจินกู’ จากซีรีส์แห่งชาติอย่าง Hotel Del Luna มารับบท ‘คิมยง’ ร่วมด้วย ‘โจอีฮยอน’ หัวหน้าห้องจากซีรีส์ซอมบี้ชื่อดัง All of Us Are Dead (มัธยมซอมบี้ ) และนักแสดงมากฝีมืออย่าง คิมฮเยยุน, นาอินอู และ แบอินฮยอก

Complete name : [MINI-HD]_Ditto.The.Agreement.2022.1080p.WEBRip.AAC.x264.THM.One2loadup.com.mkv
Format : Matroska
Format version : Version 4
File size : 4.42 GiB
Duration : 1 h 54 min
Overall bit rate : 5 533 kb/s
Movie name : [MINI-HD]_Ditto.The.Agreement.2022.1080p.WEBRip.AAC.x264.THM.One2loadup.com
Encoded date : UTC 2023-10-24 07:43:04
Writing application : mkvmerge v67.0.0 (‘Under Stars’) 64-bit
Writing library : libebml v1.4.2 + libmatroska v1.6.4
Cover : Yes
Attachments : cover

Video
ID : 1
Format : AVC
Format/Info : Advanced Video Codec
Format profile : High@L4
Format settings : CABAC / 4 Ref Frames
Format settings, CABAC : Yes
Format settings, Reference : 4 frames
Codec ID : V_MPEG4/ISO/AVC
Duration : 1 h 54 min
Bit rate : 5 000 kb/s
Width : 1 920 pixels
Height : 960 pixels
Display aspect ratio : 2.000
Frame rate mode : Constant
Frame rate : 24.000 FPS
Color space : YUV
Chroma subsampling : 4:2:0
Bit depth : 8 bits
Scan type : Progressive
Bits/(Pixel*Frame) : 0.113
Stream size : 3.98 GiB (90%)
Title : [MINI-HD]_Ditto.The.Agreement.2022.1080p.WEBRip.AAC.x264.THM.One2loadup.com
Writing library : x264 core 157 r2935 545de2f
Encoding settings : cabac=1 / ref=4 / deblock=1:0:0 / analyse=0x3:0x113 / me=hex / subme=7 / psy=1 / psy_rd=1.00:0.00 / mixed_ref=1 / me_range=16 / chroma_me=1 / trellis=1 / 8x8dct=1 / cqm=0 / deadzone=21,11 / fast_pskip=1 / chroma_qp_offset=-2 / threads=30 / lookahead_threads=5 / sliced_threads=0 / nr=0 / decimate=1 / interlaced=0 / bluray_compat=0 / constrained_intra=0 / bframes=4 / b_pyramid=2 / b_adapt=1 / b_bias=0 / direct=1 / weightb=1 / open_gop=0 / weightp=2 / keyint=240 / keyint_min=24 / scenecut=40 / intra_refresh=0 / rc_lookahead=40 / rc=abr / mbtree=1 / bitrate=5000 / ratetol=1.0 / qcomp=0.60 / qpmin=0 / qpmax=69 / qpstep=4 / vbv_maxrate=25000 / vbv_bufsize=31250 / nal_hrd=none / filler=0 / ip_ratio=1.40 / aq=1:1.00
Language : Thai
Default : Yes
Forced : No
Color range : Limited
Color primaries : BT.709
Transfer characteristics : BT.709
Matrix coefficients : BT.709

Audio #1
ID : 2
Format : AAC LC
Format/Info : Advanced Audio Codec Low Complexity
Codec ID : A_AAC-2
Duration : 1 h 54 min
Bit rate : 144 kb/s
Channel(s) : 2 channels
Channel layout : L R
Sampling rate : 48.0 kHz
Frame rate : 46.875 FPS (1024 SPF)
Compression mode : Lossy
Delay relative to video : -74 ms
Stream size : 119 MiB (3%)
Language : Thai
Default : Yes
Forced : No

Audio #2
ID : 3
Format : AAC LC
Format/Info : Advanced Audio Codec Low Complexity
Codec ID : A_AAC-2
Duration : 1 h 54 min
Bit rate : 384 kb/s
Channel(s) : 6 channels
Channel layout : C L R Ls Rs LFE
Sampling rate : 48.0 kHz
Frame rate : 46.875 FPS (1024 SPF)
Compression mode : Lossy
Delay relative to video : -74 ms
Stream size : 314 MiB (7%)
Language : Korean
Default : Yes
Forced : No

Text
ID : 4
Format : PGS
Muxing mode : zlib
Codec ID : S_HDMV/PGS
Codec ID/Info : Picture based subtitle format used on BDs/HD-DVDs
Duration : 1 h 49 min
Bit rate : 32.7 kb/s
Count of elements : 2442
Stream size : 25.7 MiB (1%)
Title : EN.130.3.100.Yellow
Language : English
Default : Yes
Forced : No

DOWNLOAD


PART01 |||| PART02 |||| PART03 |||| PART04 |||| PART05

PART01 |||| PART02 |||| PART03 |||| PART04 |||| PART05

PART01 |||| PART02 |||| PART03 |||| PART04 |||| PART05

PART01 |||| PART02 |||| PART03 |||| PART04 |||| PART05

PART01 |||| PART02 |||| PART03 |||| PART04 |||| PART05


Leave A Reply

อีเมล์ของคุณจะไม่แสดงให้เห็น Your email address will not be published.

%d