[MINI-HD] Di Renjie-Fire Kirin (2022) ตี๋เหรินเจี๋ยกับกิเลนเพลิง [1080p] [พากย์ไทย 2.0 + เสียงจีน 2.0] [ไม่มีบรรยาย] [เสียงไทยมาสเตอร์] [PANDAFILE]

0

โหลดหนัง Di Renjie-Fire Kirin (2022) ตี๋เหรินเจี๋ยกับกิเลนเพลิง

Di Renjie zhi yu huo qilin | July 23, 2022 (China) Summary:
Countries: ChinaLanguages: Mandarin

เรื่องย่อ Di Renjie-Fire Kirin (2022) ตี๋เหรินเจี๋ยกับกิเลนเพลิง

“ตี๋เหรินเจี๋ย” มายังเมืองฉางอันเป็นครั้งแรกเพื่อเข้ารับตำแหน่ง ทว่าเขากลับสังเกตเห็นอะไรแปลกๆ บนท้องถนนอันพลุกพล่าน กิเลนเพลิงที่มีไฟลุกโชนเข้ามาก่อความวุ่นวายในเทศกาลโคมไฟที่เมืองเติง ทำให้มีผู้บาดเจ็บนับไม่ถ้วน ตี๋เหรินเจี๋ยช่วยเด็กคนหนึ่งไว้และร่วมมือกับ “หลินมู่เซิน” ตามล่ากิเลนเพลิง แต่กลับพลาดให้มันหนีรอดไปได้จักรพรรดินีอู่เจ๋อเทียนทรงไม่พอใจเป็นอย่างมากจึงรั บสั่งให้ “เซวียซิน” แห่งวัดต้าหลี่มาช่วยสืบคดี ความเข้าใจผิดต่างๆ นานา ทำให้ตี๋เหรินเจี๋ยและลูกสาวของเซวียซิน “เซวียอันอัน” ไม่ลงรอยกัน แต่ทั้งสองก็ต้องร่วมมือกันสืบคดีนี้อย่างช่วยไม่ได้ในวันนั้นที่เมืองเติง ตี๋เหรินเจี๋ยพบปิ่นปักผมอันหนึ่ง ทำให้ทุกอย่างชี้ไปที่ฉีหวังฟู่ รวมไปถึงเรื่องราวความรักระหว่างอ๋องน้อย “หลี่ปี้” และ “มู่หรงหลิง” นางรำประจำหอนางโรม เมื่อการสอบสวนเข้มข้นขึ้น ตี๋เหรินเจี๋ยพบว่าคดีก็ยิ่งซับซ้อนขึ้นโดยที่มันมีความเกี่ยวข้องกับวิชาลับแห่งถูหั่วหลัวตะวันตกและโศกนาฏกรรมเมื่อสิบปีก่อน

Complete name : [MINI-HD]_Di.Renjie.Fire.Kirin.2022.1080p.WEB-DL.AC3.x264.THM.One2loadup.com.mkv
Format : Matroska
Format version : Version 4
File size : 4.30 GiB
Duration : 1 h 25 min
Overall bit rate : 7 187 kb/s
Movie name : [MINI-HD]_Di.Renjie.Fire.Kirin.2022.1080p.WEB-DL.AC3.x264.THM.One2loadup.com
Encoded date : UTC 2022-12-30 14:34:56
Writing application : mkvmerge v60.0.0 (‘Are We Copies?’) 64-bit
Writing library : libebml v1.4.2 + libmatroska v1.6.4
Cover : Yes
Attachments : cover / cover.jpg

Video #1
ID : 1
Format : AVC
Format/Info : Advanced Video Codec
Format profile : Main@L4
Format settings : CABAC / 1 Ref Frames
Format settings, CABAC : Yes
Format settings, Reference : 1 frame
Format settings, GOP : M=1, N=25
Codec ID : V_MPEG4/ISO/AVC
Duration : 1 h 25 min
Bit rate mode : Constant
Bit rate : 4 773 kb/s
Width : 1 920 pixels
Height : 1 080 pixels
Display aspect ratio : 16:9
Frame rate mode : Constant
Frame rate : 24.000 FPS
Color space : YUV
Chroma subsampling : 4:2:0
Bit depth : 8 bits
Scan type : Progressive
Bits/(Pixel*Frame) : 0.096
Stream size : 2.85 GiB (66%)
Language : Thai
Default : Yes
Forced : No

Video #2
ID : 2
Format : AVC
Format/Info : Advanced Video Codec
Format profile : Baseline@L4
Format settings : 1 Ref Frames
Format settings, CABAC : No
Format settings, Reference : 1 frame
Codec ID : V_MPEG4/ISO/AVC
Duration : 1 h 25 min
Bit rate : 2 102 kb/s
Width : 1 920 pixels
Height : 804 pixels
Display aspect ratio : 2.40:1
Frame rate mode : Constant
Frame rate : 24.000 FPS
Color space : YUV
Chroma subsampling : 4:2:0
Bit depth : 8 bits
Scan type : Progressive
Bits/(Pixel*Frame) : 0.057
Stream size : 1.26 GiB (29%)
Writing library : x264 core 155 r2901 7d0ff22
Language : Chinese
Default : Yes
Forced : No
Color range : Limited
Color primaries : BT.709
Transfer characteristics : BT.709
Matrix coefficients : BT.709

Audio #1
ID : 3
Format : AAC LC
Format/Info : Advanced Audio Codec Low Complexity
Codec ID : A_AAC-2
Duration : 1 h 25 min
Bit rate : 128 kb/s
Channel(s) : 2 channels
Channel layout : L R
Sampling rate : 44.1 kHz
Frame rate : 43.066 FPS (1024 SPF)
Compression mode : Lossy
Stream size : 78.4 MiB (2%)
Title : Chi.AAC.2.0_128 kbs
Language : Chinese
Default : Yes
Forced : No

Audio #2
ID : 4
Format : AAC LC
Format/Info : Advanced Audio Codec Low Complexity
Codec ID : A_AAC-2
Duration : 1 h 25 min
Bit rate : 192 kb/s
Channel(s) : 2 channels
Channel layout : L R
Sampling rate : 44.1 kHz
Frame rate : 43.066 FPS (1024 SPF)
Compression mode : Lossy
Stream size : 119 MiB (3%)
Title : Th.AAC.2.0_192 kbs
Language : Thai
Default : Yes
Forced : No

DOWNLOAD


PART01 |||| PART02 |||| PART03 |||| PART04 |||| PART05

PART01 |||| PART02 |||| PART03 |||| PART04 |||| PART05

PART01 |||| PART02 |||| PART03 |||| PART04 |||| PART05

PART01 |||| PART02 |||| PART03 |||| PART04 |||| PART05

PART01 |||| PART02 |||| PART03 |||| PART04 |||| PART05


Leave A Reply

อีเมล์ของคุณจะไม่แสดงให้เห็น Your email address will not be published.

%d bloggers like this: