[MINI-HD] Death Race 2 (2010) ซิ่ง สั่ง ตาย ภาค 2 [1080p] [พากย์ไทย DTS + เสียงอังกฤษ DTS] [บรรยายไทย + อังกฤษ] [เสียงไทย + ซับไทย] [PANDAFILE]

2

Death Race 2 (2010) ซิ่ง สั่ง ตาย 2

โหลดหนัง Death Race 2 (2010) ซิ่ง สั่ง ตาย 2 

Death Race 2 | January 18, 2011 (United States) Summary: Explores the origins of the first "Frankenstein" car driver, Carl "Luke" Lucas, who died in a race at the beginning of the first film.
Countries: South Africa, GermanyLanguages: English

เรื่องย่อ Death Race 2 (2010) ซิ่ง สั่ง ตาย 2

“ลุค” สมุนผู้ซื่อสัตย์ของเจ้าพ่อขาใหญ่ของอเมริกาพลาดพลั้งขณะปฏิบัติภารกิจปล้นธนาคาร ทำให้เขาโดนจับเข้าไปในคุกที่มีการบริหารโดยบริษัทเอกชนที่ชื่อว่า “เทอมินอล ไอซ์แลนด์” ในคุกนี้จะมีการแข่งขันการต่อสู้ระหว่างนักโทษด้วยกัน แล้วถ่ายทอดสดเพื่อเป็นการหารายได้เข้าสู่บริษัท แต่ทว่า คนดูเริ่มเบื่อการต่อสู้แบบจอมปลอม ผู้บริหารบริษัท เลยคิดใหม่ว่า ควรจะจัดการแข่งขัน Death race ขึ้นมาที่สะใจกว่า ตื่นเต้นกว่า เร้าใจกว่า เรื่องราวของลุคจะเป็นอย่างไร และทำไม เขาถึงได้กลายเป็นตำนาน “แฟรงเก้นสไตล์”

Complete name : [MINI-HD]_Death.Race.2.2010.UNRATED.BrRip.1080p.DTS-TH.x264.One2loadup.com.mkv
Format : Matroska
Format version : Version 4 / Version 2
File size : 3.97 GiB
Duration : 1 h 40 min
Overall bit rate : 5 672 kb/s
Movie name : [MINI-HD]_Death.Race.2.2010.UNRATED.BrRip.1080p.DTS-TH.x264.One2loadup.com
Encoded date : UTC 2015-08-06 16:08:59
Writing application : mkvmerge v7.8.0 (‘River Man’) 32bit built on Mar 27 2015 16:18:02
Writing library : libebml v1.3.1 + libmatroska v1.4.2

Video
ID : 1
Format : AVC
Format/Info : Advanced Video Codec
Format profile : [email protected]
Format settings, CABAC : Yes
Format settings, RefFrames : 4 frames
Codec ID : V_MPEG4/ISO/AVC
Duration : 1 h 40 min
Bit rate : 4 123 kb/s
Width : 1 920 pixels
Height : 1 080 pixels
Display aspect ratio : 16:9
Frame rate mode : Constant
Frame rate : 23.976 (24000/1001) FPS
Color space : YUV
Chroma subsampling : 4:2:0
Bit depth : 8 bits
Scan type : Progressive
Bits/(Pixel*Frame) : 0.083
Stream size : 2.89 GiB (73%)
Title : [MINI-HD]_Death.Race.2.2010.UNRATED.BrRip.1080p.DTS-TH.x264.One2loadup.com
Writing library : x264 core 142 r2431 ac76440
Encoding settings : cabac=1 / ref=4 / deblock=1:0:0 / analyse=0x3:0x113 / me=hex / subme=7 / psy=1 / psy_rd=1.00:0.00 / mixed_ref=1 / me_range=16 / chroma_me=1 / trellis=1 / 8x8dct=1 / cqm=0 / deadzone=21,11 / fast_pskip=1 / chroma_qp_offset=-2 / threads=12 / lookahead_threads=2 / sliced_threads=0 / nr=0 / decimate=1 / interlaced=0 / bluray_compat=0 / constrained_intra=0 / bframes=3 / b_pyramid=2 / b_adapt=1 / b_bias=0 / direct=1 / weightb=1 / open_gop=0 / weightp=2 / keyint=240 / keyint_min=23 / scenecut=40 / intra_refresh=0 / rc_lookahead=40 / rc=2pass / mbtree=1 / bitrate=4123 / ratetol=1.0 / qcomp=0.60 / qpmin=0 / qpmax=69 / qpstep=4 / cplxblur=20.0 / qblur=0.5 / vbv_maxrate=62500 / vbv_bufsize=78125 / nal_hrd=none / filler=0 / ip_ratio=1.40 / aq=1:1.00
Language : English
Default : Yes
Forced : No

Audio #1
ID : 2
Format : DTS
Format/Info : Digital Theater Systems
Mode : 16
Format settings, Endianness : Big
Codec ID : A_DTS
Duration : 1 h 40 min
Bit rate mode : Constant
Bit rate : 768 kb/s
Channel(s) : 6 channels
Channel positions : Front: L C R, Side: L R, LFE
Sampling rate : 48.0 kHz
Frame rate : 93.750 FPS (512 SPF)
Bit depth : 16 bits
Compression mode : Lossy
Stream size : 551 MiB (14%)
Title : Thai DTS 5.1 755 Kbps [BluRay Master]
Language : Thai
Default : Yes
Forced : No

Audio #2
ID : 3
Format : DTS
Format/Info : Digital Theater Systems
Mode : 16
Format settings, Endianness : Big
Codec ID : A_DTS
Duration : 1 h 40 min
Bit rate mode : Constant
Bit rate : 755 kb/s
Channel(s) : 6 channels
Channel positions : Front: L C R, Side: L R, LFE
Sampling rate : 48.0 kHz
Frame rate : 93.750 FPS (512 SPF)
Bit depth : 24 bits
Compression mode : Lossy
Stream size : 541 MiB (13%)
Title : English DTS 5.1 755 Kbps
Language : English
Default : No
Forced : No

Text #1
ID : 4
Format : VobSub
Muxing mode : zlib
Codec ID : S_VOBSUB
Codec ID/Info : Picture based subtitle format used on DVDs
Duration : 1 h 39 min
Bit rate : 1 345 b/s
Count of elements : 1031
Stream size : 984 KiB (0%)
Title : Thai 480p Low [BluRay Master]
Language : Thai
Default : No
Forced : No

Text #2
ID : 5
Format : VobSub
Muxing mode : zlib
Codec ID : S_VOBSUB
Codec ID/Info : Picture based subtitle format used on DVDs
Duration : 1 h 39 min
Bit rate : 3 492 b/s
Count of elements : 1031
Stream size : 2.50 MiB (0%)
Title : Thai 1080p Low [BluRay Master]
Language : Thai
Default : No
Forced : No

Text #3
ID : 6
Format : VobSub
Muxing mode : zlib
Codec ID : S_VOBSUB
Codec ID/Info : Picture based subtitle format used on DVDs
Duration : 1 h 39 min
Bit rate : 3 492 b/s
Count of elements : 1031
Stream size : 2.50 MiB (0%)
Title : Thai 1080p Original [BluRay Master]
Language : Thai
Default : No
Forced : No

Text #4
ID : 7
Format : PGS
Muxing mode : zlib
Codec ID : S_HDMV/PGS
Codec ID/Info : Picture based subtitle format used on BDs/HD-DVDs
Duration : 1 h 39 min
Bit rate : 7 686 b/s
Count of elements : 2062
Stream size : 5.49 MiB (0%)
Title : Thai PGS
Language : Thai
Default : Yes
Forced : No

Text #5
ID : 8
Format : VobSub
Muxing mode : zlib
Codec ID : S_VOBSUB
Codec ID/Info : Picture based subtitle format used on DVDs
Duration : 1 h 39 min
Bit rate : 5 176 b/s
Count of elements : 1184
Stream size : 3.69 MiB (0%)
Title : English 1080p Low [BluRay Master]
Language : English
Default : No
Forced : No

Text #6
ID : 9
Format : VobSub
Muxing mode : zlib
Codec ID : S_VOBSUB
Codec ID/Info : Picture based subtitle format used on DVDs
Duration : 1 h 39 min
Bit rate : 5 176 b/s
Count of elements : 1184
Stream size : 3.69 MiB (0%)
Title : English 1080p Original [BluRay Master]
Language : English
Default : No
Forced : No

Text #7
ID : 10
Format : UTF-8
Codec ID : S_TEXT/UTF8
Codec ID/Info : UTF-8 Plain Text
Duration : 1 h 39 min
Bit rate : 50 b/s
Count of elements : 1182
Stream size : 36.9 KiB (0%)
Title : English SRT
Language : English
Default : No
Forced : No

DOWNLOAD


PART01 |||| PART02 |||| PART03 |||| PART04

PART01 |||| PART02 |||| PART03 |||| PART04

PART01 |||| PART02 |||| PART03 |||| PART04

PART01 |||| PART02 |||| PART03 |||| PART04

PART01 |||| PART02 |||| PART03 |||| PART04


2 Comments
  1. Boydm Lion
    Boydm Lion says

    โหลดไม่ได้แล้วครับ

    1. Admin
      Admin says

      แก้ไขเรียบร้อยฮ๊ะ

Leave A Reply

อีเมล์ของคุณจะไม่แสดงให้เห็น Your email address will not be published.

%d bloggers like this: