[MINI-HD] Darkman (1990) ดาร์คแมน หลุดจากคน ภาค 1 [720p] [พากย์ไทย 5.1 + เสียงอังกฤษ DTS] [บรรยายไทย + อังกฤษ] [เสียงไทย + ซับไทย] [OPENLOAD]

0

Darkman (1990)

โหลดหนัง Darkman (1990) ดาร์คแมน หลุดจากคน ภาค 1

Darkman (1990) 1h 36min | Action, Sci-Fi, Thriller | 2 November 1990 (Netherlands) Summary: A brilliant scientist left for dead returns to exact revenge on the people who burned him alive.
Countries: USALanguages: English

เรื่องย่อ Darkman (1990) ดาร์คแมน หลุดจากคน ภาค 1

ด็อกเตอร์ เพย์ตั้น เวสท์เลค (เลียม นีสัน) ได้ทดลองเกี่ยวกับผิวหนังจนใกล้ประสบความสำเร็จแล้วแต่เหล่าอันธพาล นำโดยจอมโหด โรเบิร์ท จี ดูรันท์ (แลร์รี่ เดร็ก) ได้บุกเข้าไปทำลายห้องทดลองของเขาทุกสิ่งถูกเผาใต้กองไฟ เพย์ตั้นพยายามสร้างห้องทดลองขึ้นใหม่พร้อมกับรื้อฟื้นความสัมพันธ์ของเขา กับเพื่อนหญิง จูลี่ (ฟรานเชส แม็คดอร์มันด์) แต่ภารกิจสำคัญอยู่ที่ตัวของเขาเองความดื้อดึงที่จะสร้างชีวิตใหม่กับจูลี่ และล่าล้างแค้นคนที่ทำกับเขาไว้ทำให้เกิดชายที่รู้จักในนาม ดาร์คแมน ออกตามล่าเหล่าอันธพาลอย่างไม่ลดละในผลงานแอ็คชั่นมันลุ้นระทึกจากผู้กำกับ แซม ไรมี่!!!

Complete name : [MINI-HD]_Darkman.1990.720p.BluRay.DTS.x264.One2loadup.com.mkv
Format : Matroska
Format version : Version 4
File size : 3.74 GiB
Duration : 1 h 35 min
Overall bit rate mode : Variable
Overall bit rate : 5 609 kb/s
Movie name : [MINI-HD]_Darkman.1990.720p.BluRay.DTS.x264.One2loadup.com
Encoded date : UTC 2019-10-14 15:02:13
Writing application : mkvmerge v38.0.0 (‘The Silent Type’) 64-bit
Writing library : libebml v1.3.9 + libmatroska v1.5.2
Cover : Yes
Attachments : cover_land.png / cover.png

Video
ID : 1
Format : AVC
Format/Info : Advanced Video Codec
Format profile : [email protected]
Format settings : CABAC / 5 Ref Frames
Format settings, CABAC : Yes
Format settings, ReFrames : 5 frames
Codec ID : V_MPEG4/ISO/AVC
Duration : 1 h 35 min
Bit rate : 3 499 kb/s
Width : 1 280 pixels
Height : 694 pixels
Display aspect ratio : 1.85:1
Frame rate mode : Constant
Frame rate : 23.976 (24000/1001) FPS
Color space : YUV
Chroma subsampling : 4:2:0
Bit depth : 8 bits
Scan type : Progressive
Bits/(Pixel*Frame) : 0.164
Stream size : 2.33 GiB (62%)
Title : [MINI-HD]_Darkman.1990.720p.BluRay.DTS.x264.One2loadup.com
Writing library : x264 core 130 r2273 b3065e6
Encoding settings : cabac=1 / ref=5 / deblock=1:-1:-1 / analyse=0x3:0x113 / me=umh / subme=9 / psy=1 / psy_rd=1.00:0.00 / mixed_ref=1 / me_range=16 / chroma_me=1 / trellis=1 / 8x8dct=1 / cqm=0 / deadzone=21,11 / fast_pskip=1 / chroma_qp_offset=-2 / threads=24 / lookahead_threads=2 / sliced_threads=0 / nr=0 / decimate=1 / interlaced=0 / bluray_compat=0 / constrained_intra=0 / bframes=3 / b_pyramid=2 / b_adapt=1 / b_bias=0 / direct=1 / weightb=1 / open_gop=0 / weightp=2 / keyint=240 / keyint_min=24 / scenecut=40 / intra_refresh=0 / rc_lookahead=40 / rc=2pass / mbtree=1 / bitrate=3499 / ratetol=1.0 / qcomp=0.60 / qpmin=0 / qpmax=69 / qpstep=4 / cplxblur=20.0 / qblur=0.5 / ip_ratio=1.40 / aq=1:1.00
Language : English
Default : Yes
Forced : No
Color range : Limited
Color primaries : BT.709
Transfer characteristics : BT.709
Matrix coefficients : BT.709

Audio #1
ID : 2
Format : DTS
Format/Info : Digital Theater Systems
Codec ID : A_DTS
Duration : 1 h 35 min
Bit rate mode : Constant
Bit rate : 755 kb/s
Channel(s) : 6 channels
Channel layout : C L R Ls Rs LFE
Sampling rate : 48.0 kHz
Frame rate : 93.750 FPS (512 SPF)
Bit depth : 24 bits
Compression mode : Lossy
Stream size : 515 MiB (13%)
Title : DTS
Language : English
Default : Yes
Forced : Yes

Audio #2
ID : 3
Format : FLAC
Format/Info : Free Lossless Audio Codec
Codec ID : A_FLAC
Duration : 1 h 35 min
Bit rate mode : Variable
Bit rate : 1 323 kb/s
Channel(s) : 6 channels
Channel layout : L R C LFE Lb Lr
Sampling rate : 48.0 kHz
Frame rate : 10.417 FPS (4608 SPF)
Bit depth : 24 bits
Compression mode : Lossless
Stream size : 902 MiB (24%)
Title : FLAC THAI 5.1
Writing library : Lavf57.71.100
Language : Thai
Default : No
Forced : No

Text #1
ID : 4
Format : VobSub
Muxing mode : zlib
Codec ID : S_VOBSUB
Codec ID/Info : Picture based subtitle format used on DVDs
Duration : 1 h 29 min
Bit rate : 5 439 b/s
Count of elements : 742
Stream size : 3.47 MiB (0%)
Title : 1080p AS
Language : Thai
Default : Yes
Forced : Yes

Text #2
ID : 5
Format : VobSub
Muxing mode : zlib
Codec ID : S_VOBSUB
Codec ID/Info : Picture based subtitle format used on DVDs
Duration : 1 h 29 min
Bit rate : 5 448 b/s
Count of elements : 742
Stream size : 3.48 MiB (0%)
Title : 1080P AS
Language : Thai
Default : No
Forced : No

Text #3
ID : 6
Format : VobSub
Muxing mode : zlib
Codec ID : S_VOBSUB
Codec ID/Info : Picture based subtitle format used on DVDs
Duration : 1 h 29 min
Bit rate : 4 990 b/s
Count of elements : 742
Stream size : 3.19 MiB (0%)
Title : 1080P TSA
Language : Thai
Default : No
Forced : No

Text #4
ID : 7
Format : VobSub
Muxing mode : zlib
Codec ID : S_VOBSUB
Codec ID/Info : Picture based subtitle format used on DVDs
Duration : 1 h 29 min
Bit rate : 2 606 b/s
Count of elements : 742
Stream size : 1.66 MiB (0%)
Title : 720P TSA
Language : Thai
Default : No
Forced : No

Text #5
ID : 8
Format : VobSub
Muxing mode : zlib
Codec ID : S_VOBSUB
Codec ID/Info : Picture based subtitle format used on DVDs
Duration : 1 h 29 min
Bit rate : 1 377 b/s
Count of elements : 742
Stream size : 900 KiB (0%)
Title : 480P FS
Language : Thai
Default : No
Forced : No

Text #6
ID : 9
Format : VobSub
Muxing mode : zlib
Codec ID : S_VOBSUB
Codec ID/Info : Picture based subtitle format used on DVDs
Duration : 1 h 28 min
Bit rate : 2 869 b/s
Count of elements : 727
Stream size : 1.82 MiB (0%)
Title : DVD
Language : Thai
Default : No
Forced : No

Text #7
ID : 10
Format : UTF-8
Codec ID : S_TEXT/UTF8
Codec ID/Info : UTF-8 Plain Text
Duration : 1 h 29 min
Bit rate : 80 b/s
Count of elements : 744
Stream size : 52.8 KiB (0%)
Title : SRT OCR
Language : Thai
Default : No
Forced : No

Text #8
ID : 11
Format : UTF-8
Codec ID : S_TEXT/UTF8
Codec ID/Info : UTF-8 Plain Text
Duration : 1 h 28 min
Bit rate : 36 b/s
Count of elements : 815
Stream size : 23.8 KiB (0%)
Title : SRT
Language : English
Default : No
Forced : No

Text #9
ID : 12
Format : PGS
Muxing mode : zlib
Codec ID : S_HDMV/PGS
Codec ID/Info : Picture based subtitle format used on BDs/HD-DVDs
Duration : 1 h 29 min
Bit rate : 23.0 kb/s
Count of elements : 1484
Stream size : 14.7 MiB (0%)
Title : AS
Language : Thai
Default : No
Forced : No

Text #10
ID : 13
Format : PGS
Muxing mode : zlib
Codec ID : S_HDMV/PGS
Codec ID/Info : Picture based subtitle format used on BDs/HD-DVDs
Duration : 1 h 29 min
Bit rate : 21.5 kb/s
Count of elements : 1484
Stream size : 13.8 MiB (0%)
Title : TSA
Language : Thai
Default : No
Forced : No

Menu
00:00:00.000 : en:Chapter 1
00:05:32.707 : en:Chapter 2
00:09:35.157 : en:Chapter 3
00:14:49.805 : en:Chapter 4
00:19:35.507 : en:Chapter 5
00:21:46.471 : en:Chapter 6
00:28:21.991 : en:Chapter 7
00:34:42.997 : en:Chapter 8
00:36:29.812 : en:Chapter 9
00:50:18.682 : en:Chapter 10
00:57:54.471 : en:Chapter 11
01:09:03.055 : en:Chapter 12
01:11:19.942 : en:Chapter 13
01:14:22.291 : en:Chapter 14
01:20:24.277 : en:Chapter 15
01:29:08.426 : en:Chapter 16

DOWNLOAD


PART01 |||| PART02 |||| PART03 |||| PART04

PART01 |||| PART02 |||| PART03 |||| PART04

PART01 |||| PART02 |||| PART03 |||| PART04

PART01 |||| PART02 |||| PART03 |||| PART04


Leave A Reply

Your email address will not be published.

%d bloggers like this: