[MINI-HD] Daredevil (2003) แดร์เดฟเวิล มนุษย์อหังการ์ [1080p] [พากย์ไทย 5.1 + เสียงอังกฤษ 5.1] [บรรยายไทย + อังกฤษ] [เสียงไทย + ซับไทย] [OPENLOAD]

0

Daredevil (2003)

โหลดหนัง Daredevil (2003) แดร์เดฟเวิล มนุษย์อหังการ์

Daredevil (2003) 1h 43min | Action, Crime | 20 March 2003 (Netherlands) Summary: A man blinded by toxic waste which also enhanced his remaining senses fights crime as an acrobatic martial arts superhero.
Countries: USALanguages: English, Greek, Italian

เรื่องย่อ Daredevil (2003) แดร์เดฟเวิล มนุษย์อหังการ์

โลกของเขาเปรียบเสมือนราตรีตลอดกาล ทว่าในความดำมืดนั้นกลับเต็มไปด้วยเสียงและกลิ่นรสสัมผัสและความรู้สึกที่แทบทุกคนไม่เคยสังเกตเห็น แม้ว่าทนายความอย่าง แมท เมอร์ด็อค จะตาบอด แต่อีกสัมผัสทั้งสี่ของเขานั้น ทำงานได้อย่างเฉียบคมเหนือมนุษย์ ในช่วงกลางวัน เมอร์ด็อคเป็นตัวแทนของผู้ถูกย่ำยี แต่ในยามค่ำคืน เขาคือ แดร์ดีวิล ผู้ปกป้องในหน้ากาก ที่ท่องราตรีไปตามถนนสายมืดมิดของเมือง เป็นตัวแทนแห่งความยุติธรรม ผู้ไร้ซึ่งความปราณีสำหรับ แดร์ดีวิล ความยุติธรรมนั้นมืดบอด และสำหรับผู้ต้องสงสัย พวกเขาต้องชดใช้อย่างสาสม

Complete name : [MINI-HD]_Daredevi.2003.1080p.BluRay.AC3.x264.One2loadup.com.mkv
Format : Matroska
Format version : Version 4
File size : 3.48 GiB
Duration : 2 h 13 min
Overall bit rate mode : Variable
Overall bit rate : 3 742 kb/s
Movie name : [MINI-HD]_Daredevi.2003.1080p.BluRay.AC3.x264.One2loadup.com
Encoded date : UTC 2015-05-15 03:00:10
Writing application : mkvmerge v7.5.0 (‘Glass Culture’) 32bit built on Jan 4 2015 16:37:25
Writing library : libebml v1.3.1 + libmatroska v1.4.2

Video
ID : 1
Format : AVC
Format/Info : Advanced Video Codec
Format profile : [email protected]
Format settings : CABAC / 3 Ref Frames
Format settings, CABAC : Yes
Format settings, ReFrames : 3 frames
Codec ID : V_MPEG4/ISO/AVC
Duration : 2 h 13 min
Bit rate mode : Variable
Bit rate : 3 296 kb/s
Maximum bit rate : 62.5 Mb/s
Width : 1 920 pixels
Height : 816 pixels
Display aspect ratio : 2.35:1
Frame rate mode : Constant
Frame rate : 23.976 (24000/1001) FPS
Color space : YUV
Chroma subsampling : 4:2:0
Bit depth : 8 bits
Scan type : Progressive
Bits/(Pixel*Frame) : 0.088
Stream size : 3.06 GiB (88%)
Title : [MINI-HD]_Daredevi.2003.1080p.BluRay.AC3.x264.One2loadup.com
Writing library : x264 core 120 r2120 0c7dab9
Encoding settings : cabac=1 / ref=3 / deblock=1:-1:-1 / analyse=0x3:0x113 / me=hex / subme=7 / psy=1 / psy_rd=1.00:0.15 / mixed_ref=1 / me_range=16 / chroma_me=1 / trellis=1 / 8x8dct=1 / cqm=0 / deadzone=21,11 / fast_pskip=1 / chroma_qp_offset=-3 / threads=3 / sliced_threads=0 / nr=0 / decimate=1 / interlaced=0 / bluray_compat=0 / constrained_intra=0 / bframes=3 / b_pyramid=0 / b_adapt=1 / b_bias=0 / direct=1 / weightb=1 / open_gop=0 / weightp=2 / keyint=240 / keyint_min=24 / scenecut=40 / intra_refresh=0 / rc_lookahead=40 / rc=2pass / mbtree=1 / bitrate=3296 / ratetol=1.0 / qcomp=0.60 / qpmin=0 / qpmax=69 / qpstep=4 / cplxblur=20.0 / qblur=0.5 / vbv_maxrate=62500 / vbv_bufsize=62500 / nal_hrd=vbr / ip_ratio=1.40 / aq=1:1.00
Language : English
Default : Yes
Forced : No

Audio #1
ID : 2
Format : AC-3
Format/Info : Audio Coding 3
Commercial name : Dolby Digital
Codec ID : A_AC3
Duration : 2 h 13 min
Bit rate mode : Constant
Bit rate : 224 kb/s
Channel(s) : 2 channels
Channel layout : L R
Sampling rate : 48.0 kHz
Frame rate : 31.250 FPS (1536 SPF)
Bit depth : 16 bits
Compression mode : Lossy
Stream size : 213 MiB (6%)
Title : Thai BluRay Master
Language : Thai
Service kind : Complete Main
Default : Yes
Forced : No

Audio #2
ID : 3
Format : AC-3
Format/Info : Audio Coding 3
Commercial name : Dolby Digital
Codec ID : A_AC3
Duration : 2 h 13 min
Bit rate mode : Constant
Bit rate : 192 kb/s
Channel(s) : 2 channels
Channel layout : L R
Sampling rate : 48.0 kHz
Frame rate : 31.250 FPS (1536 SPF)
Bit depth : 16 bits
Compression mode : Lossy
Stream size : 183 MiB (5%)
Title : AC3
Language : English
Service kind : Complete Main
Default : No
Forced : No

Text #1
ID : 4
Format : VobSub
Muxing mode : zlib
Codec ID : S_VOBSUB
Codec ID/Info : Picture based subtitle format used on DVDs
Duration : 2 h 4 min
Bit rate : 3 737 b/s
Count of elements : 1060
Stream size : 3.33 MiB (0%)
Title : Thai 1080p [BluRay Master]
Language : Thai
Default : No
Forced : No

Text #2
ID : 5
Format : VobSub
Muxing mode : zlib
Codec ID : S_VOBSUB
Codec ID/Info : Picture based subtitle format used on DVDs
Duration : 2 h 4 min
Bit rate : 3 737 b/s
Count of elements : 1060
Stream size : 3.33 MiB (0%)
Title : Thai 1080p Under [BluRay Master]
Language : Thai
Default : No
Forced : No

Text #3
ID : 6
Format : PGS
Muxing mode : zlib
Codec ID : S_HDMV/PGS
Codec ID/Info : Picture based subtitle format used on BDs/HD-DVDs
Duration : 2 h 4 min
Bit rate : 9 608 b/s
Count of elements : 2122
Stream size : 8.55 MiB (0%)
Title : Thai PGS [BluRay Master]
Language : Thai
Default : No
Forced : No

Text #4
ID : 7
Format : VobSub
Muxing mode : zlib
Codec ID : S_VOBSUB
Codec ID/Info : Picture based subtitle format used on DVDs
Duration : 2 h 1 min
Bit rate : 3 937 b/s
Count of elements : 1044
Stream size : 3.43 MiB (0%)
Title : English 1080p [BluRay Master]
Language : English
Default : No
Forced : No

Text #5
ID : 8
Format : PGS
Muxing mode : zlib
Codec ID : S_HDMV/PGS
Codec ID/Info : Picture based subtitle format used on BDs/HD-DVDs
Duration : 2 h 1 min
Bit rate : 10.1 kb/s
Count of elements : 2091
Stream size : 8.78 MiB (0%)
Title : English PGS [BluRay Master]
Language : English
Default : No
Forced : No

DOWNLOAD


PART01 |||| PART02 |||| PART03 |||| PART04

PART01 |||| PART02 |||| PART03 |||| PART04

PART01 |||| PART02 |||| PART03 |||| PART04

PART01 |||| PART02 |||| PART03 |||| PART04


Leave A Reply

Your email address will not be published.