[MINI-HD] Dances With Wolves (1990) จอมคนแห่งโลกที่ 5 [1080p] [พากย์ไทย 2.0 + เสียงอังกฤษ 5.1] [บรรยายไทย + อังกฤษ] [เสียงไทย + ซับไทย] [PANDAFILE]

5

โหลดหนัง Dances With Wolves (1990) จอมคนแห่งโลกที่ 5

Dances with Wolves | November 21, 1990 (United States) Summary: Lieutenant John Dunbar, assigned to a remote western Civil War outpost, befriends wolves and Native Americans, making him an intolerable aberration in the military.
Countries: United States, United KingdomLanguages: English, Sioux, Pawnee

เรื่องย่อ Dances With Wolves (1990) จอมคนแห่งโลกที่ 5

เป็นวิธีการเล่าเรื่องจากความทรงจำวิธีหนึ่ง ของ “คนขาว” ที่มีปฏิสัมพันธ์ กับชนเผ่าพื้นเมือง Sioux ในประเทศอเมริกา จอห์น เจ ดันบาร์ เป็นทหารของสหรัฐอเมริกาเขาเดินทางมุ่งหน้าไปทางทิศต ะวันตก และได้กางเตนท์ นอนอยู่ไม่ไกล จากที่ตั้งของเผ่า Sioux เท่าใดนัก แรก ๆ ที่ชาวพื้นเมืองอินเดียนแดง เห็น ดันบาร์ พวกเขา อาจมีคติว่า คนขาวคนนี้ไม่ได้มาดี แต่พอเวลาผ่านไป ดันบาร์ ก็เริ่มทำความคุ้นเคยกับ คนเผ่าพื้นเมือง จนได้รับการยอมรับให้ทำกิจกรรมกรรม กับชนเผ่าพื้นเมือง และได้ชื่อ แบบคนพื้นเมือง จนในที่สุด เขาก็ได้รับการยอมรับให้กลายเป็นพวกเดียวกันกับอินเด ียนแดงเผ่านั้น

Complete name : [MINI-HD]_Dances.With.Wolves.1990.1080p.AC3.x264.One2loadup.com.mkv
Format : Matroska
Format version : Version 4 / Version 2
File size : 4.31 GiB
Duration : 3 h 0 min
Overall bit rate : 3 414 kb/s
Movie name : [MINI-HD]_Dances.With.Wolves.1990.1080p.AC3.x264.One2loadup.com
Encoded date : UTC 2015-10-13 10:16:34
Writing application : mkvmerge v8.4.0 (‘A better way to fly’) 64bit
Writing library : libebml v1.3.1 + libmatroska v1.4.2
Cover : Yes
Attachments : cover_land.png / cover.png

Video
ID : 1
Format : AVC
Format/Info : Advanced Video Codec
Format profile : [email protected]
Format settings, CABAC : Yes
Format settings, RefFrames : 4 frames
Codec ID : V_MPEG4/ISO/AVC
Duration : 3 h 0 min
Bit rate : 2 554 kb/s
Width : 1 920 pixels
Height : 808 pixels
Display aspect ratio : 2.40:1
Frame rate mode : Constant
Frame rate : 23.976 (23976/1000) FPS
Color space : YUV
Chroma subsampling : 4:2:0
Bit depth : 8 bits
Scan type : Progressive
Bits/(Pixel*Frame) : 0.069
Stream size : 3.23 GiB (75%)
Title : [MINI-HD]_Dances.With.Wolves.1990.1080p.AC3.x264.One2loadup.com
Writing library : x264 core 146 r2538 121396c
Encoding settings : cabac=1 / ref=4 / deblock=1:-3:-3 / analyse=0x3:0x113 / me=umh / subme=11 / psy=1 / psy_rd=1.00:0.00 / mixed_ref=1 / me_range=64 / chroma_me=1 / trellis=2 / 8x8dct=1 / cqm=0 / deadzone=21,11 / fast_pskip=0 / chroma_qp_offset=-2 / threads=24 / lookahead_threads=2 / sliced_threads=0 / nr=0 / decimate=1 / interlaced=0 / bluray_compat=0 / constrained_intra=0 / bframes=4 / b_pyramid=2 / b_adapt=2 / b_bias=0 / direct=3 / weightb=1 / open_gop=0 / weightp=2 / keyint=250 / keyint_min=23 / scenecut=40 / intra_refresh=0 / rc_lookahead=120 / rc=2pass / mbtree=1 / bitrate=2554 / ratetol=1.0 / qcomp=0.60 / qpmin=0 / qpmax=69 / qpstep=4 / cplxblur=20.0 / qblur=0.5 / vbv_maxrate=99999 / vbv_bufsize=99999 / nal_hrd=none / filler=0 / ip_ratio=1.40 / aq=1:1.00
Language : English
Default : Yes
Forced : No

Audio #1
ID : 2
Format : AC-3
Format/Info : Audio Coding 3
Mode : Dolby Digital
Format settings, Endianness : Big
Codec ID : A_AC3
Duration : 3 h 0 min
Bit rate mode : Constant
Bit rate : 192 kb/s
Channel(s) : 2 channels
Channel positions : Front: L R
Sampling rate : 48.0 kHz
Frame rate : 31.250 FPS (1536 SPF)
Bit depth : 16 bits
Compression mode : Lossy
Stream size : 248 MiB (6%)
Title : AC3 BD MASTER Zuhada
Language : Thai
Service kind : Complete Main
Default : Yes
Forced : Yes

Audio #2
ID : 3
Format : AC-3
Format/Info : Audio Coding 3
Format settings, Endianness : Big
Codec ID : A_AC3
Duration : 3 h 0 min
Bit rate mode : Constant
Bit rate : 640 kb/s
Channel(s) : 6 channels
Channel positions : Front: L C R, Side: L R, LFE
Sampling rate : 48.0 kHz
Frame rate : 31.250 FPS (1536 SPF)
Bit depth : 16 bits
Compression mode : Lossy
Stream size : 828 MiB (19%)
Title : AC3 BD MASTER Zuhada
Language : English
Service kind : Complete Main
Default : No
Forced : No

Text #1
ID : 4
Format : VobSub
Muxing mode : zlib
Codec ID : S_VOBSUB
Codec ID/Info : Picture based subtitle format used on DVDs
Duration : 2 h 59 min
Bit rate : 2 245 b/s
Count of elements : 1118
Stream size : 2.88 MiB (0%)
Title : 1080P BD MASTER Zuhada
Language : Thai
Default : No
Forced : Yes

Text #2
ID : 5
Format : VobSub
Muxing mode : zlib
Codec ID : S_VOBSUB
Codec ID/Info : Picture based subtitle format used on DVDs
Duration : 2 h 59 min
Bit rate : 2 243 b/s
Count of elements : 1118
Stream size : 2.88 MiB (0%)
Title : 1080P YELLOW Zuhada
Language : Thai
Default : No
Forced : No

Text #3
ID : 6
Format : VobSub
Muxing mode : zlib
Codec ID : S_VOBSUB
Codec ID/Info : Picture based subtitle format used on DVDs
Duration : 2 h 59 min
Bit rate : 2 245 b/s
Count of elements : 1118
Stream size : 2.88 MiB (0%)
Title : 1080P UNDER Zuhada
Language : Thai
Default : Yes
Forced : No

Text #4
ID : 7
Format : VobSub
Muxing mode : zlib
Codec ID : S_VOBSUB
Codec ID/Info : Picture based subtitle format used on DVDs
Duration : 2 h 59 min
Bit rate : 805 b/s
Count of elements : 1118
Stream size : 1.03 MiB (0%)
Title : 480P
Language : Thai
Default : No
Forced : No

Text #5
ID : 8
Format : PGS
Muxing mode : zlib
Codec ID : S_HDMV/PGS
Codec ID/Info : Picture based subtitle format used on BDs/HD-DVDs
Duration : 2 h 59 min
Bit rate : 5 600 b/s
Count of elements : 2244
Stream size : 7.19 MiB (0%)
Title : BD MASTER Zuhada
Language : Thai
Default : No
Forced : No

Text #6
ID : 9
Format : PGS
Muxing mode : zlib
Codec ID : S_HDMV/PGS
Codec ID/Info : Picture based subtitle format used on BDs/HD-DVDs
Duration : 2 h 59 min
Bit rate : 5 587 b/s
Count of elements : 2236
Stream size : 7.18 MiB (0%)
Title : BD UNDER Zuhada
Language : Thai
Default : No
Forced : No

Text #7
ID : 10
Format : PGS
Muxing mode : zlib
Codec ID : S_HDMV/PGS
Codec ID/Info : Picture based subtitle format used on BDs/HD-DVDs
Duration : 2 h 59 min
Bit rate : 8 034 b/s
Count of elements : 2792
Stream size : 10.3 MiB (0%)
Title : BD MASTER Zuhada
Language : English
Default : No
Forced : No

 

DOWNLOAD

5 Comments
  1. แหม่มโพธิ์ดํา

    แอดครับตั้งแต่แอดเปลี่ยนหน้าเมนูเว็บใหม่ ผมกดเข้าลิ้งหนังที่แอดอัปใหม่ไม่ได้เลย

    1. Admin
      Admin says

      เอ่าเรอะ ติดตรงไหนหว่า

      1. แหม่มโพธิ์ดํา

        โพสรูปไม่ได้เลยครับ เลยไปโพสรูปหน้าเพจแอดอยู่ครับ กดเข้าลิ้งโหลดไม่ได้เลยครับ

  2. prasop says

    อัพให้่ใหม่ด้วยครับ โหลดไม่ได้

    1. Admin
      Admin says

      แก้ไขเรียบร้อยฮ๊ะ

Leave A Reply

อีเมล์ของคุณจะไม่แสดงให้เห็น Your email address will not be published.

%d bloggers like this: