[MINI-HD] The Conjuring (2013) คนเรียกผี [1080p] [พากย์ไทย 5.1 + เสียงอังกฤษ DTS] [บรรยายไทย + อังกฤษ] [เสียงไทย + ซับไทย] [PANDAFILE]

15

The Conjuring (2013)

โหลดหนัง The Conjuring (2013) คนเรียกผี 

The Conjuring | July 19, 2013 (United States) Summary: Paranormal investigators Ed and Lorraine Warren work to help a family terrorized by a dark presence in their farmhouse.
Countries: United StatesLanguages: English, Latin

เรื่องย่อ The Conjuring (2013) คนเรียกผี

ครอบครัวหนึ่งต้องอกสั่นขวัญผวาที่มีวิญญาณมาคอยหลอก หลอน จึงต้องเชิญสองผู้เชี่ยวชาญทางด้านวิญญาณมาช่วยเหลือ เรื่องจริงจากคดีของสองสามีภรรยา เอ็ด และ ลอเรน วอร์เรน (แพทริค วิลสัน และ เวรา ฟลามิงกา) นักสืบสวนเรื่องราวเหนือธรรมชาติ ที่มักถูกเชิญไปปราบผี หรือเวลาที่ไหนเกิดเหตุการณ์ของผีหลอกวิญญาณหลอน

Complete name : [MINI-HD]_The.Conjuring.2013.1080p.BluRay.AC3.DTS.x264.One2loadup.com.mkv
Format : Matroska
Format version : Version 4 / Version 2
File size : 3.27 GiB
Duration : 1 h 51 min
Overall bit rate : 4 186 kb/s
Movie name : [MINI-HD]_The.Conjuring.2013.1080p.BluRay.AC3.DTS.x264.One2loadup.com
Encoded date : UTC 2016-07-22 08:54:39
Writing application : mkvmerge v9.0.1 (‘Obstacles’) 64bit
Writing library : libebml v1.3.3 + libmatroska v1.4.4

Video
ID : 1
Format : AVC
Format/Info : Advanced Video Codec
Format profile : [email protected]
Format settings : CABAC / 5 Ref Frames
Format settings, CABAC : Yes
Format settings, ReFrames : 5 frames
Codec ID : V_MPEG4/ISO/AVC
Duration : 1 h 51 min
Bit rate : 2 015 kb/s
Width : 1 920 pixels
Height : 800 pixels
Display aspect ratio : 2.40:1
Frame rate mode : Constant
Frame rate : 23.976 (24000/1001) FPS
Original frame rate : 23.976 (23976/1000) FPS
Color space : YUV
Chroma subsampling : 4:2:0
Bit depth : 8 bits
Scan type : Progressive
Bits/(Pixel*Frame) : 0.055
Stream size : 1.58 GiB (48%)
Title : [MINI-HD]_The.Conjuring.2013.1080p.BluRay.AC3.DTS.x264.One2loadup.com
Writing library : x264 core 132 r2 76a5c3a
Encoding settings : cabac=1 / ref=5 / deblock=1:-1:-1 / analyse=0x3:0x133 / me=umh / subme=9 / psy=1 / psy_rd=1.00:0.15 / mixed_ref=1 / me_range=24 / chroma_me=1 / trellis=2 / 8x8dct=1 / cqm=0 / deadzone=21,11 / fast_pskip=0 / chroma_qp_offset=-3 / threads=18 / lookahead_threads=1 / sliced_threads=0 / nr=0 / decimate=1 / interlaced=0 / bluray_compat=0 / constrained_intra=0 / bframes=3 / b_pyramid=2 / b_adapt=2 / b_bias=0 / direct=3 / weightb=1 / open_gop=0 / weightp=2 / keyint=250 / keyint_min=23 / scenecut=40 / intra_refresh=0 / rc_lookahead=60 / rc=2pass / mbtree=1 / bitrate=2015 / ratetol=1.0 / qcomp=0.60 / qpmin=0 / qpmax=69 / qpstep=4 / cplxblur=20.0 / qblur=0.5 / vbv_maxrate=31250 / vbv_bufsize=31250 / nal_hrd=none / ip_ratio=1.40 / aq=1:1.00
Language : English
Default : Yes
Forced : No
Color range : Limited
Color primaries : BT.709
Matrix coefficients : BT.709

Audio #1
ID : 2
Format : AC-3
Format/Info : Audio Coding 3
Codec ID : A_AC3
Duration : 1 h 51 min
Bit rate mode : Constant
Bit rate : 640 kb/s
Channel(s) : 6 channels
Channel positions : Front: L C R, Side: L R, LFE
Sampling rate : 48.0 kHz
Frame rate : 31.250 FPS (1536 SPF)
Bit depth : 16 bits
Compression mode : Lossy
Stream size : 513 MiB (15%)
Title : THAI AC3 @640Kbps
Language : Thai
Service kind : Complete Main
Default : Yes
Forced : No

Audio #2
ID : 3
Format : DTS
Format/Info : Digital Theater Systems
Codec ID : A_DTS
Duration : 1 h 51 min
Bit rate mode : Constant
Bit rate : 1 509 kb/s
Channel(s) : 6 channels
Channel positions : Front: L C R, Side: L R, LFE
Sampling rate : 48.0 kHz
Frame rate : 93.750 FPS (512 SPF)
Bit depth : 24 bits
Compression mode : Lossy
Stream size : 1.18 GiB (36%)
Title : ENGLISH DTS @1509Kbps
Language : English
Default : No
Forced : No

Text #1
ID : 4
Format : VobSub
Muxing mode : zlib
Codec ID : S_VOBSUB
Codec ID/Info : Picture based subtitle format used on DVDs
Duration : 1 h 51 min
Bit rate : 1 323 b/s
Count of elements : 1095
Stream size : 1.06 MiB (0%)
Title : TH 480P
Language : Thai
Default : No
Forced : No

Text #2
ID : 5
Format : VobSub
Muxing mode : zlib
Codec ID : S_VOBSUB
Codec ID/Info : Picture based subtitle format used on DVDs
Duration : 1 h 51 min
Bit rate : 3 870 b/s
Count of elements : 1095
Stream size : 3.09 MiB (0%)
Title : TH 1080P
Language : Thai
Default : No
Forced : No

Text #3
ID : 6
Format : PGS
Muxing mode : zlib
Codec ID : S_HDMV/PGS
Codec ID/Info : Picture based subtitle format used on BDs/HD-DVDs
Duration : 1 h 51 min
Bit rate : 9 624 b/s
Count of elements : 2193
Stream size : 7.67 MiB (0%)
Title : TH PGS
Language : Thai
Default : No
Forced : No

Text #4
ID : 7
Format : UTF-8
Codec ID : S_TEXT/UTF8
Codec ID/Info : UTF-8 Plain Text
Duration : 1 h 44 min
Bit rate : 45 b/s
Count of elements : 1087
Stream size : 34.9 KiB (0%)
Title : EN
Language : English
Default : No
Forced : No

Text #5
ID : 8
Format : PGS
Muxing mode : zlib
Codec ID : S_HDMV/PGS
Codec ID/Info : Picture based subtitle format used on BDs/HD-DVDs
Duration : 1 h 44 min
Bit rate : 5 146 b/s
Count of elements : 2176
Stream size : 3.86 MiB (0%)
Title : EN PGS MODIFIED BY THINMANSB
Language : English
Default : Yes
Forced : No

DOWNLOAD


PART01 |||| PART02 |||| PART03 |||| PART04

PART01 |||| PART02 |||| PART03 |||| PART04

PART01 |||| PART02 |||| PART03 |||| PART04

PART01 |||| PART02 |||| PART03 |||| PART04

PART01 |||| PART02 |||| PART03 |||| PART04


15 Comments
  1. สุธานี says

    โหลดไม่ได้ครับ

    1. Admin
      Admin says

      แก้ไขเรียบร้อยฮ๊ะ

  2. Hakimu
    Hakimu says

    โหลดเสร็จต้องทำอะไรบ้างครับ

    1. Admin
      Admin says

      ถ้าโหลดเป็น part ก็แยกไฟล์ออก ฮ๊ะ

  3. Hakimu
    Hakimu says

    เป็น part นี่ต้องโหลดทุกอันไหมครับ เช่นมี part1 2 3 4 อะไรอย่างงี้อะครับหรือว่าโหลดอันไหนก็ได้

    1. Admin
      Admin says

      ใช่ฮ๊ะ ต้องโหลดทุก part

  4. Hakimu
    Hakimu says

    เเล้วต้องรวมไฟล์ยังไงครับ

    1. Admin
      Admin says

      ใช้โปรแกรมในการรวมไฟล์ ฮ๊ะ winrar

      1. Hakimu
        Hakimu says

        คือกดเลือกทุกอันพร้อมกันเเล้วเเตกไฟล์ใช่ไหมครับหรือยังไง

        1. Admin
          Admin says

          เลือกอันไหนก็ได้ฮ๊ะ เดี่ยวมันรวมไฟล์เอง

  5. boyd says

    มีภาค 2 ไหมครับ

    1. Admin
      Admin says

      อยู่ในคิวขอหนังอยู่แล้วฮ๊ะ

      1. boyd says

        รอติดตามครับผม

  6. Young Oat
    Young Oat says

    อัพ cornfile ให้หน่อยครับ

    1. Admin
      Admin says

      แก้ไขเรียบร้อยฮ๊ะ

Leave A Reply

อีเมล์ของคุณจะไม่แสดงให้เห็น Your email address will not be published.

%d bloggers like this: