[MINI-HD] Blonde (2022) บลอนด์ [1080p] [NETFLIX] [พากย์ไทย 5.1 + เสียงอังกฤษ 5.1] [บรรยายไทย + อังกฤษ] [เสียงไทย + ซับไทย] [USERLOAD]

0

โหลดหนัง Blonde (2022) บลอนด์

Blonde | September 28, 2022 (United States) Summary: A fictionalized chronicle of the inner life of Marilyn Monroe.
Countries: United StatesLanguages: English, Italian

เรื่องย่อ Blonde (2022) บลอนด์

เธอคือดาวค้างฟ้า ขาประจำแทบลอยด์ และดาราสาวสุดเซ็กซี่ ทุกคนต่างก็รู้จักมาริลีน มอนโร แต่กลับไม่มีใครมองเห็นนอร์ม่า จีน นักแสดงสาว อนา เดอ อาร์มาส รับบทนำในผลงานดราม่าที่ถ่ายทอดชีวิตส่วนตัวซึ่งเต็ม ไปด้วยปัญหาจากตัวตนอีกด้าน ที่ซับซ้อนและเปราะบางของไอคอนแห่งฮอลลีวูด

Complete name : [MINI-HD]_Blonde.2022.1080p.NF.WEB-DL.EAC3..x265.One2loadup.com.mkv
Format : Matroska
Format version : Version 4
File size : 4.99 GiB
Duration : 2 h 47 min
Overall bit rate : 4 268 kb/s
Movie name : [MINI-HD]_Blonde.2022.1080p.NF.WEB-DL.EAC3..x265.One2loadup.com
Encoded date : UTC 2022-10-10 22:48:37
Writing application : mkvmerge v67.0.0 (‘Under Stars’) 64-bit
Writing library : libebml v1.4.2 + libmatroska v1.6.4
Cover : Yes
Attachments : cover.png

Video
ID : 1
Format : HEVC
Format/Info : High Efficiency Video Coding
Format profile : Main [email protected]@Main
Codec ID : V_MPEGH/ISO/HEVC
Duration : 2 h 47 min
Bit rate : 2 797 kb/s
Width : 1 920 pixels
Height : 1 080 pixels
Display aspect ratio : 16:9
Frame rate mode : Constant
Frame rate : 24.000 FPS
Color space : YUV
Chroma subsampling : 4:2:0
Bit depth : 10 bits
Bits/(Pixel*Frame) : 0.056
Stream size : 3.27 GiB (66%)
Title : [MINI-HD]_Blonde.2022.1080p.NF.WEB-DL.EAC3..x265.One2loadup.com
Language : English
Default : Yes
Forced : No
Color range : Limited
Color primaries : BT.709
Transfer characteristics : BT.709
Matrix coefficients : BT.709

Audio #1
ID : 2
Format : E-AC-3 JOC
Format/Info : Enhanced AC-3 with Joint Object Coding
Commercial name : Dolby Digital Plus with Dolby Atmos
Codec ID : A_EAC3
Duration : 2 h 47 min
Bit rate mode : Constant
Bit rate : 768 kb/s
Channel(s) : 6 channels
Channel layout : L R C LFE Ls Rs
Sampling rate : 48.0 kHz
Frame rate : 31.250 FPS (1536 SPF)
Compression mode : Lossy
Stream size : 920 MiB (18%)
Title : อังกฤษ E-AC-3
Language : English
Service kind : Complete Main
Default : No
Forced : No
Complexity index : 16
Number of dynamic objects : 15
Bed channel count : 1 channel
Bed channel configuration : LFE

Audio #2
ID : 3
Format : E-AC-3
Format/Info : Enhanced AC-3
Commercial name : Dolby Digital Plus
Codec ID : A_EAC3
Duration : 2 h 47 min
Bit rate mode : Constant
Bit rate : 640 kb/s
Channel(s) : 6 channels
Channel layout : L R C LFE Ls Rs
Sampling rate : 48.0 kHz
Frame rate : 31.250 FPS (1536 SPF)
Compression mode : Lossy
Stream size : 767 MiB (15%)
Title : Thai-DDP 5.1
Language : Thai
Service kind : Complete Main
Default : Yes
Forced : Yes

Text #1
ID : 4
Format : UTF-8
Codec ID : S_TEXT/UTF8
Codec ID/Info : UTF-8 Plain Text
Duration : 2 h 35 min
Bit rate : 34 b/s
Count of elements : 1319
Stream size : 39.6 KiB (0%)
Title : อังกฤษ
Language : English
Default : No
Forced : No

Text #2
ID : 5
Format : UTF-8
Codec ID : S_TEXT/UTF8
Codec ID/Info : UTF-8 Plain Text
Duration : 2 h 38 min
Bit rate : 44 b/s
Count of elements : 1687
Stream size : 51.2 KiB (0%)
Title : อังกฤษ SDH
Language : English
Default : No
Forced : No

Text #3
ID : 6
Format : UTF-8
Codec ID : S_TEXT/UTF8
Codec ID/Info : UTF-8 Plain Text
Duration : 2 h 45 min
Bit rate : 54 b/s
Count of elements : 1410
Stream size : 66.6 KiB (0%)
Language : Arabic
Default : No
Forced : No

Text #4
ID : 7
Format : UTF-8
Codec ID : S_TEXT/UTF8
Codec ID/Info : UTF-8 Plain Text
Duration : 2 h 45 min
Bit rate : 30 b/s
Count of elements : 1354
Stream size : 36.9 KiB (0%)
Language : Czech
Default : No
Forced : No

Text #5
ID : 8
Format : UTF-8
Codec ID : S_TEXT/UTF8
Codec ID/Info : UTF-8 Plain Text
Duration : 2 h 45 min
Bit rate : 32 b/s
Count of elements : 1325
Stream size : 39.7 KiB (0%)
Language : Danish
Default : No
Forced : No

Text #6
ID : 9
Format : UTF-8
Codec ID : S_TEXT/UTF8
Codec ID/Info : UTF-8 Plain Text
Duration : 2 h 45 min
Bit rate : 31 b/s
Count of elements : 1301
Stream size : 38.7 KiB (0%)
Language : German
Default : No
Forced : No

Text #7
ID : 10
Format : UTF-8
Codec ID : S_TEXT/UTF8
Codec ID/Info : UTF-8 Plain Text
Duration : 2 h 45 min
Bit rate : 55 b/s
Count of elements : 1368
Stream size : 67.2 KiB (0%)
Language : Greek
Default : No
Forced : No

Text #8
ID : 11
Format : UTF-8
Codec ID : S_TEXT/UTF8
Codec ID/Info : UTF-8 Plain Text
Duration : 2 h 35 min
Bit rate : 36 b/s
Count of elements : 1506
Stream size : 41.1 KiB (0%)
Language : Spanish
Default : No
Forced : No

Text #9
ID : 12
Format : UTF-8
Codec ID : S_TEXT/UTF8
Codec ID/Info : UTF-8 Plain Text
Duration : 2 h 45 min
Bit rate : 32 b/s
Count of elements : 1350
Stream size : 39.6 KiB (0%)
Language : Spanish
Default : No
Forced : No

Text #10
ID : 13
Format : UTF-8
Codec ID : S_TEXT/UTF8
Codec ID/Info : UTF-8 Plain Text
Duration : 2 h 45 min
Bit rate : 32 b/s
Count of elements : 1363
Stream size : 39.4 KiB (0%)
Title : European
Language : Spanish
Default : No
Forced : No

Text #11
ID : 14
Format : UTF-8
Codec ID : S_TEXT/UTF8
Codec ID/Info : UTF-8 Plain Text
Duration : 2 h 38 min
Bit rate : 42 b/s
Count of elements : 1791
Stream size : 48.8 KiB (0%)
Title : SDH
Language : Spanish
Default : No
Forced : No

Text #12
ID : 15
Format : UTF-8
Codec ID : S_TEXT/UTF8
Codec ID/Info : UTF-8 Plain Text
Duration : 2 h 45 min
Bit rate : 31 b/s
Count of elements : 1309
Stream size : 38.1 KiB (0%)
Language : Finnish
Default : No
Forced : No

Text #13
ID : 16
Format : UTF-8
Codec ID : S_TEXT/UTF8
Codec ID/Info : UTF-8 Plain Text
Duration : 2 h 45 min
Bit rate : 35 b/s
Count of elements : 1342
Stream size : 42.5 KiB (0%)
Language : fil
Default : No
Forced : No

Text #14
ID : 17
Format : UTF-8
Codec ID : S_TEXT/UTF8
Codec ID/Info : UTF-8 Plain Text
Duration : 2 h 45 min
Bit rate : 30 b/s
Count of elements : 1320
Stream size : 36.6 KiB (0%)
Language : French
Default : No
Forced : No

Text #15
ID : 18
Format : UTF-8
Codec ID : S_TEXT/UTF8
Codec ID/Info : UTF-8 Plain Text
Duration : 2 h 45 min
Bit rate : 50 b/s
Count of elements : 1364
Stream size : 61.6 KiB (0%)
Language : Hebrew
Default : No
Forced : No

Text #16
ID : 19
Format : UTF-8
Codec ID : S_TEXT/UTF8
Codec ID/Info : UTF-8 Plain Text
Duration : 2 h 45 min
Bit rate : 29 b/s
Count of elements : 1357
Stream size : 36.1 KiB (0%)
Language : Croatian
Default : No
Forced : No

Text #17
ID : 20
Format : UTF-8
Codec ID : S_TEXT/UTF8
Codec ID/Info : UTF-8 Plain Text
Duration : 2 h 45 min
Bit rate : 33 b/s
Count of elements : 1342
Stream size : 40.4 KiB (0%)
Language : Hungarian
Default : No
Forced : No

Text #18
ID : 21
Format : UTF-8
Codec ID : S_TEXT/UTF8
Codec ID/Info : UTF-8 Plain Text
Duration : 2 h 45 min
Bit rate : 32 b/s
Count of elements : 1357
Stream size : 39.8 KiB (0%)
Language : Indonesian
Default : No
Forced : No

Text #19
ID : 22
Format : UTF-8
Codec ID : S_TEXT/UTF8
Codec ID/Info : UTF-8 Plain Text
Duration : 2 h 45 min
Bit rate : 31 b/s
Count of elements : 1307
Stream size : 37.8 KiB (0%)
Language : Italian
Default : No
Forced : No

Text #20
ID : 23
Format : UTF-8
Codec ID : S_TEXT/UTF8
Codec ID/Info : UTF-8 Plain Text
Duration : 2 h 45 min
Bit rate : 33 b/s
Count of elements : 1292
Stream size : 40.7 KiB (0%)
Language : Japanese
Default : No
Forced : No

Text #21
ID : 24
Format : UTF-8
Codec ID : S_TEXT/UTF8
Codec ID/Info : UTF-8 Plain Text
Duration : 2 h 45 min
Bit rate : 37 b/s
Count of elements : 1368
Stream size : 45.9 KiB (0%)
Language : Korean
Default : No
Forced : No

Text #22
ID : 25
Format : UTF-8
Codec ID : S_TEXT/UTF8
Codec ID/Info : UTF-8 Plain Text
Duration : 2 h 45 min
Bit rate : 31 b/s
Count of elements : 1358
Stream size : 38.5 KiB (0%)
Language : Malay
Default : No
Forced : No

Text #23
ID : 26
Format : UTF-8
Codec ID : S_TEXT/UTF8
Codec ID/Info : UTF-8 Plain Text
Duration : 2 h 45 min
Bit rate : 30 b/s
Count of elements : 1336
Stream size : 36.9 KiB (0%)
Language : Norwegian Bokmal
Default : No
Forced : No

Text #24
ID : 27
Format : UTF-8
Codec ID : S_TEXT/UTF8
Codec ID/Info : UTF-8 Plain Text
Duration : 2 h 45 min
Bit rate : 29 b/s
Count of elements : 1285
Stream size : 36.3 KiB (0%)
Language : Dutch
Default : No
Forced : No

Text #25
ID : 28
Format : UTF-8
Codec ID : S_TEXT/UTF8
Codec ID/Info : UTF-8 Plain Text
Duration : 2 h 45 min
Bit rate : 30 b/s
Count of elements : 1271
Stream size : 36.5 KiB (0%)
Language : Polish
Default : No
Forced : No

Text #26
ID : 29
Format : UTF-8
Codec ID : S_TEXT/UTF8
Codec ID/Info : UTF-8 Plain Text
Duration : 2 h 45 min
Bit rate : 32 b/s
Count of elements : 1348
Stream size : 39.6 KiB (0%)
Language : Portuguese
Default : No
Forced : No

Text #27
ID : 30
Format : UTF-8
Codec ID : S_TEXT/UTF8
Codec ID/Info : UTF-8 Plain Text
Duration : 2 h 45 min
Bit rate : 33 b/s
Count of elements : 1393
Stream size : 40.2 KiB (0%)
Title : Brazilian
Language : Portuguese
Default : No
Forced : No

Text #28
ID : 31
Format : UTF-8
Codec ID : S_TEXT/UTF8
Codec ID/Info : UTF-8 Plain Text
Duration : 2 h 45 min
Bit rate : 37 b/s
Count of elements : 1356
Stream size : 45.1 KiB (0%)
Language : Romanian
Default : No
Forced : No

Text #29
ID : 32
Format : UTF-8
Codec ID : S_TEXT/UTF8
Codec ID/Info : UTF-8 Plain Text
Duration : 2 h 45 min
Bit rate : 53 b/s
Count of elements : 1422
Stream size : 65.1 KiB (0%)
Language : Russian
Default : No
Forced : No

Text #30
ID : 33
Format : UTF-8
Codec ID : S_TEXT/UTF8
Codec ID/Info : UTF-8 Plain Text
Duration : 2 h 45 min
Bit rate : 31 b/s
Count of elements : 1308
Stream size : 38.3 KiB (0%)
Language : Swedish
Default : No
Forced : No

Text #31
ID : 34
Format : UTF-8
Codec ID : S_TEXT/UTF8
Codec ID/Info : UTF-8 Plain Text
Duration : 2 h 45 min
Bit rate : 80 b/s
Count of elements : 1365
Stream size : 97.1 KiB (0%)
Title : ไทย SRT
Language : Thai
Default : No
Forced : No

Text #32
ID : 35
Format : UTF-8
Codec ID : S_TEXT/UTF8
Codec ID/Info : UTF-8 Plain Text
Duration : 2 h 45 min
Bit rate : 33 b/s
Count of elements : 1351
Stream size : 40.7 KiB (0%)
Language : Turkish
Default : No
Forced : No

Text #33
ID : 36
Format : UTF-8
Codec ID : S_TEXT/UTF8
Codec ID/Info : UTF-8 Plain Text
Duration : 2 h 45 min
Bit rate : 50 b/s
Count of elements : 1360
Stream size : 60.7 KiB (0%)
Language : Ukrainian
Default : No
Forced : No

Text #34
ID : 37
Format : UTF-8
Codec ID : S_TEXT/UTF8
Codec ID/Info : UTF-8 Plain Text
Duration : 2 h 45 min
Bit rate : 46 b/s
Count of elements : 1367
Stream size : 56.1 KiB (0%)
Language : Vietnamese
Default : No
Forced : No

Text #35
ID : 38
Format : UTF-8
Codec ID : S_TEXT/UTF8
Codec ID/Info : UTF-8 Plain Text
Duration : 2 h 45 min
Bit rate : 33 b/s
Count of elements : 1368
Stream size : 41.1 KiB (0%)
Title : Simplified
Language : Chinese
Default : No
Forced : No

Text #36
ID : 39
Format : UTF-8
Codec ID : S_TEXT/UTF8
Codec ID/Info : UTF-8 Plain Text
Duration : 2 h 45 min
Bit rate : 32 b/s
Count of elements : 1413
Stream size : 39.6 KiB (0%)
Title : Traditional
Language : Chinese
Default : No
Forced : No

Text #37
ID : 40
Format : PGS
Muxing mode : zlib
Codec ID : S_HDMV/PGS
Codec ID/Info : Picture based subtitle format used on BDs/HD-DVDs
Duration : 2 h 45 min
Bit rate : 17.8 kb/s
Count of elements : 2730
Stream size : 21.0 MiB (0%)
Title : ไทย เหลือง PGS
Language : Thai
Default : No
Forced : No

Text #38
ID : 41
Format : PGS
Muxing mode : zlib
Codec ID : S_HDMV/PGS
Codec ID/Info : Picture based subtitle format used on BDs/HD-DVDs
Duration : 2 h 45 min
Bit rate : 17.8 kb/s
Count of elements : 2730
Stream size : 21.0 MiB (0%)
Title : ไทย PGS
Language : Thai
Default : Yes
Forced : No

Text #39
ID : 42
Format : PGS
Muxing mode : zlib
Codec ID : S_HDMV/PGS
Codec ID/Info : Picture based subtitle format used on BDs/HD-DVDs
Duration : 2 h 45 min
Bit rate : 938 b/s
Count of elements : 72
Stream size : 1.11 MiB (0%)
Title : Thai-FORCED PGS From Original NETFLIX
Language : Thai
Default : Yes
Forced : No

Text #40
ID : 43
Format : VobSub
Muxing mode : zlib
Codec ID : S_VOBSUB
Codec ID/Info : Picture based subtitle format used on DVDs
Duration : 2 h 45 min
Bit rate : 184 b/s
Count of elements : 36
Stream size : 224 KiB (0%)
Title : Thai-FORCED VOBSUB From Original NETFLIX
Language : Thai
Default : Yes
Forced : No

Text #41
ID : 44
Format : PGS
Muxing mode : zlib
Codec ID : S_HDMV/PGS
Codec ID/Info : Picture based subtitle format used on BDs/HD-DVDs
Duration : 2 h 45 min
Bit rate : 22.5 kb/s
Count of elements : 2730
Stream size : 26.6 MiB (1%)
Title : Thai-PGS NETFLIX [Angsana]
Language : Thai
Default : Yes
Forced : No

Text #42
ID : 45
Format : PGS
Muxing mode : zlib
Codec ID : S_HDMV/PGS
Codec ID/Info : Picture based subtitle format used on BDs/HD-DVDs
Duration : 2 h 45 min
Bit rate : 32.2 kb/s
Count of elements : 2730
Stream size : 38.1 MiB (1%)
Title : Thai-PGS From Original NETFLIX
Language : Thai
Default : Yes
Forced : No

Text #43
ID : 46
Format : VobSub
Muxing mode : zlib
Codec ID : S_VOBSUB
Codec ID/Info : Picture based subtitle format used on DVDs
Duration : 2 h 45 min
Bit rate : 5 471 b/s
Count of elements : 1365
Stream size : 6.47 MiB (0%)
Title : Thai-VOBSUB NETFLIX [Angsana]
Language : Thai
Default : Yes
Forced : No

Text #44
ID : 47
Format : VobSub
Muxing mode : zlib
Codec ID : S_VOBSUB
Codec ID/Info : Picture based subtitle format used on DVDs
Duration : 2 h 45 min
Bit rate : 6 297 b/s
Count of elements : 1365
Stream size : 7.45 MiB (0%)
Title : Thai-VOBSUB From Original NETFLIX
Language : Thai
Default : Yes
Forced : No

DOWNLOAD


PART01 |||| PART02 |||| PART03 |||| PART04 |||| PART05

PART01 |||| PART02 |||| PART03 |||| PART04 |||| PART05

PART01 |||| PART02 |||| PART03 |||| PART04 |||| PART05

PART01 |||| PART02 |||| PART03 |||| PART04 |||| PART05

PART01 |||| PART02 |||| PART03 |||| PART04 |||| PART05


Leave A Reply

อีเมล์ของคุณจะไม่แสดงให้เห็น Your email address will not be published.

%d bloggers like this: