[MINI-HD] BlacKkKlansman (2018) แบล็คแคลนซ์แมน [1080p] [พากย์ไทย 5.1 + เสียงอังกฤษ DTS] [บรรยายไทย + อังกฤษ] [เสียงไทย + ซับไทย] [DOSYAUPLOAD]

0

โหลดหนัง BlacKkKlansman (2018) แบล็คแคลนซ์แมน

BlacKkKlansman (2018) 2h 15min | Biography, Comedy, Crime | 10 August 2018 (USA) Summary: Ron Stallworth, an African American police officer from Colorado Springs, CO, successfully manages to infiltrate the local Ku Klux Klan branch with the help of a Jewish surrogate who eventually becomes its leader. Based on actual events.
Countries: USALanguages: English

เรื่องย่อ BlacKkKlansman (2018) แบล็คแคลนซ์แมน

หนังให้ครบทั้งอารมณ์ขัน ความตื่นเต้น ที่ถูกนำเสนอผ่านตัวละครหลักทั้งสองคน ที่แม้จะเป็นคนต่างสีผิวที่ต้องทำงานสอดรับกันหนังสร้างจากเรื่องเหลือเชื่อจนไม่น่าเชื่อว่าจะเป็นเรื่องจริงของตำรวจนักสืบแอฟริกันอเมริกัน (รับบทโดยจอห์น เดวิด วอชิงตัน) กับตำรวจยิวคู่หู (อดัม ไดรเวอร์) ที่อิงจากบันทึกของรอน สตอลล์เวิร์ธ ชื่อ Black Klansman ว่าด้วยเรื่องราวของตำรวจแอฟริกันอเมริกันคนแรกแห่งกรมตำรวจโคโลราโดสปริงในต้นยุค 70 ที่บังเอิญพบโฆษณาในหน้าหนังสือพิมพ์ชวนผู้คนมาสมัค เป็นสมาชิกของคูคลักซ์ แคลนประจำท้องถิ่น ซึ่งเป็นขบวนการชาตินิยมผิวขาวสุดโต่งในสหรัฐ ขณะที่โทรศัพท์เข้าไปพูดคุย สตอลล์เวิร์ธอ้างตัวเป็นคนผิวขาวเพื่อสอบถามจนได้ความเชื่อใจจากเดวิด ดุ๊ค (โทเฟอร์ เกรซ) ผู้เป็นหัวหน้าของคูคลักซ์แคลน เขาจึงจำเป็นต้องขอความช่วยเหลือจากเพื่อนตำรวจผิวขาว ฟลิป ซิมเมอร์แมน (ไดรเวอร์) ให้ปลอมตัวเป็นเขาเพื่อเข้าไปสืบแผนการของขบวนการนี้ และพบว่าได้วางแผนที่จะก่อการร้ายขึ้นมา!!!

Complete name : [MINI-HD]_BlacKkKlansman.2018.1080p.BluRay.DTS.x264.One2loadup.com.mkv
Format : Matroska
Format version : Version 4
File size : 4.38 GiB
Duration : 2 h 14 min
Overall bit rate : 4 655 kb/s
Movie name : [MINI-HD]_BlacKkKlansman.2018.1080p.BluRay.DTS.x264.One2loadup.com
Encoded date : UTC 2019-06-07 07:41:10
Writing application : mkvmerge v34.0.0 (‘Sight and Seen’) 64-bit
Writing library : libebml v1.3.7 + libmatroska v1.5.0

Video
ID : 1
Format : AVC
Format/Info : Advanced Video Codec
Format profile : [email protected]
Format settings : CABAC / 5 Ref Frames
Format settings, CABAC : Yes
Format settings, ReFrames : 5 frames
Codec ID : V_MPEG4/ISO/AVC
Duration : 2 h 14 min
Bit rate : 1 721 kb/s
Width : 1 920 pixels
Height : 808 pixels
Display aspect ratio : 2.40:1
Frame rate mode : Constant
Frame rate : 23.976 (24000/1001) FPS
Color space : YUV
Chroma subsampling : 4:2:0
Bit depth : 8 bits
Scan type : Progressive
Bits/(Pixel*Frame) : 0.046
Stream size : 1.62 GiB (37%)
Title : [MINI-HD]_BlacKkKlansman.2018.1080p.BluRay.DTS.x264.One2loadup.com
Writing library : x264 core 155 r2901 7d0ff22
Encoding settings : cabac=1 / ref=5 / deblock=1:-1:-1 / analyse=0x3:0x113 / me=umh / subme=9 / psy=1 / psy_rd=0.00:0.00 / mixed_ref=1 / me_range=32 / chroma_me=1 / trellis=1 / 8x8dct=1 / cqm=0 / deadzone=21,11 / fast_pskip=0 / chroma_qp_offset=0 / threads=12 / lookahead_threads=1 / sliced_threads=0 / nr=0 / decimate=1 / interlaced=0 / bluray_compat=0 / constrained_intra=0 / bframes=3 / b_pyramid=2 / b_adapt=2 / b_bias=0 / direct=3 / weightb=1 / open_gop=0 / weightp=2 / keyint=240 / keyint_min=23 / scenecut=40 / intra_refresh=0 / rc_lookahead=40 / rc=2pass / mbtree=1 / bitrate=1721 / ratetol=1.0 / qcomp=0.60 / qpmin=0 / qpmax=69 / qpstep=4 / cplxblur=20.0 / qblur=0.5 / vbv_maxrate=62500 / vbv_bufsize=78125 / nal_hrd=none / filler=0 / ip_ratio=1.40 / aq=1:1.00
Language : English
Default : Yes
Forced : No

Audio #1
ID : 2
Format : AC-3
Format/Info : Audio Coding 3
Commercial name : Dolby Digital
Codec ID : A_AC3
Duration : 2 h 14 min
Bit rate mode : Constant
Bit rate : 160 kb/s
Channel(s) : 6 channels
Channel layout : L R C LFE Ls Rs
Sampling rate : 44.1 kHz
Frame rate : 28.711 FPS (1536 SPF)
Bit depth : 16 bits
Compression mode : Lossy
Stream size : 154 MiB (3%)
Title : 5.1 AC3-Thai 160k 154m
Language : Thai
Service kind : Complete Main
Default : No
Forced : No

Audio #2
ID : 3
Format : DTS
Format/Info : Digital Theater Systems
Codec ID : A_DTS
Duration : 2 h 14 min
Bit rate mode : Constant
Bit rate : 2 646 kb/s
Channel(s) : 6 channels
Channel layout : C L R Ls Rs LFE
Sampling rate : 32.0 kHz
Frame rate : 31.250 FPS (1024 SPF)
Bit depth : 16 bits
Compression mode : Lossy
Stream size : 2.49 GiB (57%)
Title : dts 5.1-Eng 32000-2.49g
Language : English
Default : No
Forced : No

Audio #3
ID : 4
Format : AAC LC
Format/Info : Advanced Audio Codec Low Complexity
Codec ID : A_AAC-2
Duration : 2 h 14 min
Bit rate : 125 kb/s
Channel(s) : 2 channels
Channel layout : L R
Sampling rate : 48.0 kHz
Frame rate : 46.875 FPS (1024 SPF)
Compression mode : Lossy
Stream size : 121 MiB (3%)
Title : AAC 2.0-125k
Language : Persian
Default : No
Forced : No

Text #1
ID : 5
Format : UTF-8
Codec ID : S_TEXT/UTF8
Codec ID/Info : UTF-8 Plain Text
Duration : 2 h 7 min
Bit rate : 189 b/s
Count of elements : 2445
Stream size : 177 KiB (0%)
Title : SRT
Language : Thai
Default : Yes
Forced : No

Text #2
ID : 6
Format : UTF-8
Codec ID : S_TEXT/UTF8
Codec ID/Info : UTF-8 Plain Text
Duration : 2 h 8 min
Bit rate : 84 b/s
Count of elements : 2688
Stream size : 79.8 KiB (0%)
Title : SRT
Language : English
Default : No
Forced : No

Text #3
ID : 7
Format : UTF-8
Codec ID : S_TEXT/UTF8
Codec ID/Info : UTF-8 Plain Text
Duration : 2 h 13 min
Bit rate : 130 b/s
Count of elements : 2979
Stream size : 128 KiB (0%)
Title : SRT–Hearing Impaired=ผู้บกพร่องทางเสียง
Language : English
Default : No
Forced : No

DOWNLOAD


PART01 |||| PART02 |||| PART03 |||| PART04 |||| PART05

PART01 |||| PART02 |||| PART03 |||| PART04 |||| PART05

PART01 |||| PART02 |||| PART03 |||| PART04 |||| PART05

PART01 |||| PART02 |||| PART03 |||| PART04 |||| PART05

PART01 |||| PART02 |||| PART03 |||| PART04 |||| PART05



แจ้งหนังเสีย หรือโหลดไม่ได้ ทั้งลิ้งฟรีและ vip สามารถกดที่รูปด้านบนนี้ได้เลย

: Disable Comments
%d bloggers like this: