[MINI-HD] Bill & Ted Face the Music (2020) บิลกับเท็ด ดนตรีกู้โลก [1080p] [พากย์ไทย 2.0 + เสียงอังกฤษ 5.1] [บรรยายอังกฤษ] [เสียงไทยมาสเตอร์ + ซับอังกฤษ] [PANDAFILE]

0

โหลดหนัง Bill & Ted Face the Music (2020) บิลกับเท็ด ดนตรีกู้โลก

Bill & Ted Face the Music (2020) 91min | Adventure, Comedy, Music | 28 August 2020 (USA) Summary: Once told they'd save the universe during a time-traveling adventure, 2 would-be rockers from San Dimas, California find themselves as middle-aged dads still trying to crank out a hit song and fulfill their destiny.
Countries: Bahamas, USALanguages: German, English

เรื่องย่อ Bill & Ted Face the Music (2020) บิลกับเท็ด ดนตรีกู้โลก

ย้อนกลับไปเมื่อปี 1989 ภาพยนตร์ “Bill and Ted’s Excellent Adventure” ได้รับการเปิดตัวด้วยแนวทางไซไฟคอมเมดี้ที่ฉีกกรอบเดิม ๆ จนกลายเป็นหนึ่งในภาพยนตร์ที่โดดเด่นที่สุดในช่วงทศวรรษ โดยบอกเล่าเรื่องราวของ Ted Theodore Logan (รับบทโดย Keanu Reeves) และ Bill S. Preston (รับบทโดย Alex Winter) สองคู่หูวัยรุ่นด้อยสติปัญญาที่หมกมุ่นกับการทำเพลงร็อก ได้ออกเดินทางย้อนเวลาไปช่วงสำคัญของประวัติศาสตร์ด้วยเครื่อง Time Machine และปกป้องจักรวาลไว้ได้ต่อมา “Bill and Ted’s Bogus Journey” ได้เข้าฉายในปี 1991 โดยนอกจากจะได้รับความนิยมเพิ่มขึ้นแล้วก็ยังสร้างฐานแฟน ๆ ขึ้นมาได้อย่างน่าประทับใจ

Complete name : [MINI-HD]_Bill.and.Ted.Face.the.Music.2020.1080p.AMZN.WEB-DL.EAC3.x264.THM.One2loadup.com.mkv
Format : Matroska
Format version : Version 4
File size : 3.57 GiB
Duration : 1 h 31 min
Overall bit rate : 5 554 kb/s
Movie name : [MINI-HD]_Bill.and.Ted.Face.the.Music.2020.1080p.AMZN.WEB-DL.EAC3.x264.THM.One2loadup.com
Encoded date : UTC 2021-04-14 16:29:25
Writing application : mkvmerge v55.0.0 (‘Waiting For Space’) 64-bit
Writing library : libebml v1.4.2 + libmatroska v1.6.4

Video
ID : 1
Format : AVC
Format/Info : Advanced Video Codec
Format profile : [email protected]
Format settings : CABAC / 4 Ref Frames
Format settings, CABAC : Yes
Format settings, Reference : 4 frames
Codec ID : V_MPEG4/ISO/AVC
Duration : 1 h 31 min
Bit rate : 4 500 kb/s
Width : 1 920 pixels
Height : 800 pixels
Display aspect ratio : 2.40:1
Frame rate mode : Constant
Frame rate : 23.976 (24000/1001) FPS
Color space : YUV
Chroma subsampling : 4:2:0
Bit depth : 8 bits
Scan type : Progressive
Bits/(Pixel*Frame) : 0.122
Stream size : 2.87 GiB (80%)
Title : [MINI-HD]_Bill.and.Ted.Face.the.Music.2020.1080p.AMZN.WEB-DL.EAC3.x264.THM.One2loadup.com
Writing library : x264 core 157 r2935 545de2f
Encoding settings : cabac=1 / ref=1 / deblock=1:0:0 / analyse=0x3:0x113 / me=hex / subme=2 / psy=1 / psy_rd=1.00:0.00 / mixed_ref=0 / me_range=16 / chroma_me=1 / trellis=0 / 8x8dct=1 / cqm=0 / deadzone=21,11 / fast_pskip=1 / chroma_qp_offset=0 / threads=10 / lookahead_threads=3 / sliced_threads=0 / nr=0 / decimate=1 / interlaced=0 / bluray_compat=0 / constrained_intra=0 / bframes=3 / b_pyramid=2 / b_adapt=1 / b_bias=0 / direct=1 / weightb=1 / open_gop=0 / weightp=1 / keyint=240 / keyint_min=24 / scenecut=40 / intra_refresh=0 / rc_lookahead=10 / rc=abr / mbtree=1 / bitrate=4500 / ratetol=1.0 / qcomp=0.60 / qpmin=0 / qpmax=69 / qpstep=4 / vbv_maxrate=62500 / vbv_bufsize=78125 / nal_hrd=none / filler=0 / ip_ratio=1.40 / aq=1:1.00
Default : Yes
Forced : No
Color range : Limited
Color primaries : BT.709
Transfer characteristics : BT.709
Matrix coefficients : BT.709

Audio #1
ID : 2
Format : E-AC-3
Format/Info : Enhanced AC-3
Commercial name : Dolby Digital Plus
Codec ID : A_EAC3
Duration : 1 h 31 min
Bit rate mode : Constant
Bit rate : 448 kb/s
Channel(s) : 2 channels
Channel layout : L R
Sampling rate : 48.0 kHz
Frame rate : 31.250 FPS (1536 SPF)
Compression mode : Lossy
Delay relative to video : -5 ms
Stream size : 295 MiB (8%)
Language : Thai
Service kind : Complete Main
Default : Yes
Forced : No

Audio #2
ID : 3
Format : E-AC-3
Format/Info : Enhanced AC-3
Commercial name : Dolby Digital Plus
Codec ID : A_EAC3
Duration : 1 h 31 min
Bit rate mode : Constant
Bit rate : 640 kb/s
Channel(s) : 6 channels
Channel layout : L R C LFE Ls Rs
Sampling rate : 48.0 kHz
Frame rate : 31.250 FPS (1536 SPF)
Compression mode : Lossy
Delay relative to video : -5 ms
Stream size : 421 MiB (12%)
Language : English
Service kind : Complete Main
Default : No
Forced : No

Text #1
ID : 4
Format : UTF-8
Codec ID : S_TEXT/UTF8
Codec ID/Info : UTF-8 Plain Text
Duration : 1 h 31 min
Bit rate : 63 b/s
Count of elements : 1583
Stream size : 42.1 KiB (0%)
Language : English
Default : Yes
Forced : No

Text #2
ID : 5
Format : UTF-8
Codec ID : S_TEXT/UTF8
Codec ID/Info : UTF-8 Plain Text
Duration : 1 h 31 min
Bit rate : 68 b/s
Count of elements : 1733
Stream size : 45.4 KiB (0%)
Title : SDH
Language : English
Default : No
Forced : No

Menu
00:00:00.000 : :Studio Logo
00:00:33.000 : :Prologue
00:01:56.000 : :Wedding
00:06:32.000 : :Couples’ Therapy
00:09:53.000 : :Respecting the situation
00:20:54.000 : :Plagiarizer
00:25:49.000 : :Putting plans in place
00:30:05.000 : :Assembling a band
00:41:57.000 : :More members
00:47:09.000 : :Hell
00:51:42.000 : :Face the music
00:59:05.000 : :The last member
01:10:00.000 : :The prophesy
01:24:15.000 : :End Credits
01:29:38.000 : :One last thing to do

DOWNLOAD


PART01 |||| PART02 |||| PART03 |||| PART04

PART01 |||| PART02 |||| PART03 |||| PART04

PART01 |||| PART02 |||| PART03 |||| PART04

PART01 |||| PART02 |||| PART03 |||| PART04

PART01 |||| PART02 |||| PART03 |||| PART04


Leave A Reply

Your email address will not be published.

%d bloggers like this: