[MINI-HD] Bikeman 2 (2019) ไบค์แมน ภาค 2 [1080p] [พากย์ไทย 5.1 + 2.0] [บรรยายไทย + อังกฤษ] [เสียงไทย + ซับไทย] [PANDAFILE]

0

โหลดหนัง Bikeman 2 (2019) ไบค์แมน ภาค 2

Bikeman 2 (2019) Comedy | 23 October 2019 (Thailand) Summary: The story of Sakkarin continues from "Bikeman". Sakkarin is now on his full-speed hitting on Jai but love comes with as obstacle as he has to face with challenges posted by Jai's intimidating father.
Countries: ThailandLanguages: Thai

เรื่องย่อ Bikeman 2 (2019) ไบค์แมน ภาค 2

หลังจากความสำเร็จอย่างสร้างปรากฏการณ์แบบไม่คาดฝันในภาคแรกอย่าง “ไบค์แมน ศักรินทร์ ตูดหมึก” ก็ได้เข็นภาคสองออกมาตอบรับกระแสจากผู้ชมที่ต่างบอกกันปากต่อปากกับความสนุก ฮาลั่น ฮาทะลวงของตัวหนัง ปีนี้ก็ถึงเวลาได้ออกสตาร์ทเครื่องอีกครั้งใน “ไบค์แมน 2” ด้วยส่วนตัวก็ชอบภาคแรกมากเป็นทุนแล้ว มีหรือที่ภาคสองจะพลาด ยิ่งจะรับไปพิสูจน์เลยทันที ปรากฏว่าไม่บ้งนะจ้ะ สนุกและน่ารักอย่างลงตัวเลย เรื่องราวพลิกผันจากตอนจบภาคแรกทันที เมื่อ “จ๋าย (ฝน ศนันธฉัตร)” ได้บังเอิญเจอพ่อตนเองที่ลงเอยแบบไม่ค่อยดีนัก จึงทำให้ “พ่อของเธอ (เต๋า สมชาย)” จึงได้รู้ว่าจ๋ายมีแฟน และอยากที่จะรู้จักครอบครัวทางฝั่งของแฟนลูกสาวตนเอง จึงให้ไปชักชวนมาเที่ยวที่บ้าน จนกระทั่ง “ศักรินทร์ (พีช พชร)” จึงต้องขนบรรดาเพื่อนสนิท ญาติมิตร ไปกันครบทีม ครื้นเครงพร้อมหน้าพร้อมตา เรื่องวายป่วง หรรษาก็ได้สนั่นอีกครั้ง!!

Complete name : Bikeman.2.2019.1080p.NF.WEBRip.AC3.x264.One2loadup.com.mkv
Format : Matroska
Format version : Version 4
File size : 3.64 GiB
Duration : 1 h 46 min
Overall bit rate : 4 897 kb/s
Movie name : Bikeman.2.2019.1080p.NF.WEBRip.AC3.x264.One2loadup.com
Encoded date : UTC 2020-05-14 08:06:03
Writing application : mkvmerge v46.0.0 (‘No Deeper Escape’) 64-bit
Writing library : libebml v1.3.10 + libmatroska v1.5.2

Video
ID : 1
Format : AVC
Format/Info : Advanced Video Codec
Format profile : [email protected]
Format settings : CABAC / 4 Ref Frames
Format settings, CABAC : Yes
Format settings, ReFrames : 4 frames
Codec ID : V_MPEG4/ISO/AVC
Duration : 1 h 46 min
Bit rate : 3 985 kb/s
Width : 1 920 pixels
Height : 1 080 pixels
Display aspect ratio : 16:9
Frame rate mode : Constant
Frame rate : 25.000 FPS
Color space : YUV
Chroma subsampling : 4:2:0
Bit depth : 8 bits
Scan type : Progressive
Bits/(Pixel*Frame) : 0.077
Stream size : 2.96 GiB (81%)
Title : Bikeman.2.2019.1080p.NF.WEBRip.AC3.x264.One2loadup.com
Language : Thai
Default : Yes
Forced : No

Audio #1
ID : 2
Format : E-AC-3
Format/Info : Enhanced AC-3
Commercial name : Dolby Digital Plus
Codec ID : A_EAC3
Duration : 1 h 46 min
Bit rate mode : Constant
Bit rate : 640 kb/s
Channel(s) : 6 channels
Channel layout : L R C LFE Ls Rs
Sampling rate : 48.0 kHz
Frame rate : 31.250 FPS (1536 SPF)
Compression mode : Lossy
Stream size : 487 MiB (13%)
Title : Thai 5.1 From Netfilx @ 640 kb/s
Language : Thai
Service kind : Complete Main
Default : Yes
Forced : No

Audio #2
ID : 3
Format : AAC LC
Format/Info : Advanced Audio Codec Low Complexity
Codec ID : A_AAC-2
Duration : 1 h 46 min
Bit rate : 210 kb/s
Channel(s) : 2 channels
Channel layout : L R
Sampling rate : 44.1 kHz
Frame rate : 43.066 FPS (1024 SPF)
Compression mode : Lossy
Stream size : 160 MiB (4%)
Title : Thai 2.0 From Netfilx @ 210 kb/s
Language : Thai
Default : No
Forced : No

Text #1
ID : 4
Format : PGS
Codec ID : S_HDMV/PGS
Codec ID/Info : Picture based subtitle format used on BDs/HD-DVDs
Duration : 9 min 17 s
Bit rate : 583 b/s
Count of elements : 4
Stream size : 39.7 KiB (0%)
Title : Thai Forced PGS
Language : Thai
Default : Yes
Forced : No

Text #2
ID : 5
Format : PGS
Codec ID : S_HDMV/PGS
Codec ID/Info : Picture based subtitle format used on BDs/HD-DVDs
Duration : 1 h 43 min
Bit rate : 49.6 kb/s
Count of elements : 3272
Stream size : 36.6 MiB (1%)
Title : Thai PGS
Language : Thai
Default : No
Forced : No

Text #3
ID : 6
Format : VobSub
Codec ID : S_VOBSUB
Codec ID/Info : Picture based subtitle format used on DVDs
Duration : 1 h 43 min
Bit rate : 11.4 kb/s
Count of elements : 1636
Stream size : 8.40 MiB (0%)
Title : Thai 1080p
Language : Thai
Default : No
Forced : No

Text #4
ID : 7
Format : UTF-8
Codec ID : S_TEXT/UTF8
Codec ID/Info : UTF-8 Plain Text
Duration : 1 h 42 min
Bit rate : 51 b/s
Count of elements : 1440
Stream size : 38.6 KiB (0%)
Title : English
Language : English
Default : No
Forced : No

DOWNLOAD


PART01 |||| PART02 |||| PART03 |||| PART04

PART01 |||| PART02 |||| PART03 |||| PART04

PART01 |||| PART02 |||| PART03 |||| PART04 

PART01 |||| PART02 |||| PART03 |||| PART04

PART01 |||| PART02 |||| PART03 |||| PART04


Disable Comments
%d bloggers like this: