[MINI-HD] Baby’s Day Out (1994) จ้ำม่ำเจ๊าะแจ๊ะ ให้เมืองยิ้ม [1080p] [พากย์ไทย 2.0 + เสียงอังกฤษ 5.1] [บรรยายไทย + อังกฤษ] [เสียงไทย + ซับไทย] [PANDAFILE]

0

โหลดหนัง Baby’s Day Out (1994) จ้ำม่ำเจ๊าะแจ๊ะ ให้เมืองยิ้ม

Baby's Day Out (1994) 1h 39min | Adventure, Comedy, Crime | 1 July 1994 (USA) Summary: After three kidnappers lose the baby they have kidnapped, both the cops and kidnappers go looking for the baby.
Countries: USALanguages: English

เรื่องย่อ Baby’s Day Out (1994) จ้ำม่ำเจ๊าะแจ๊ะ ให้เมืองยิ้ม

หนูน้อยเบบี้ บิ้งค์ ทายาทตัวน้อยของครอบครัวคอทเวล อัครมหาเศรษฐีประจำเมือง วันหนึ่งเบนนิงตัน (แมตทิว แกลว) และลาเรน (ลาร่า ฟลินน์ บอยล์) พ่อแม่ที่ต้องการให้ลูกชายตัวน้อยมีรูปถ่ายสวยๆลงโชว์ในหนังสือพิมพ์ จึงติดต่อว่าจ้างร้านถ่ายรูปมีชื่อของเมือง และเป็นเวลาเดียวกับที่แก๊ง 3 โจรสุดแสบ อันประกอบไปด้วย เอ็ดดี้ (ลาร่า ฟลินน์ บอยล์), นอร์บี้ (โจ แพนโทเลียโน) และวีโค้ (ไบรอัน เฮลี่ย์) ล่วงรู้ข่าวนี้ ทำให้ทั้ง 3 คนวางแผนสวมรอยเป็นช่างภาพเข้าไปในคฤหาสน์ตระกูลคอทเวล เพื่อทำการลักพาตัวหนูน้อยไปเรียกค่าไถ่ และหลังจากจับตัวหนูน้อยเบบี้ บิ้งค์ แก๊ง 3 โจรกลับต้องพบกับความฉลาดสุบแสบของหนูน้อยวัยกระเตาะ ที่คิดว่าตนเองกำลังอยู่ในนิทานเรื่องการผจญภัยของหนูน้อย บู บู นิทานเรื่องโปรดของเบบี้ บิ้งค์ ที่กิลเบอร์ทีน (ซินเธีย นิกสัน) พี่เลี้ยงสาวของอย่างเบบี้ บิ้งค์มักอ่านให้ฟังอยู่เป็นประจำ และนั่นคือจุดเริ่มต้นของเรื่องราวการผจญภัยสุดยิ่งใหญ่ของหนูน้อยเบบี้ บิ้งค์

Complete name : [MINI-HD]_Baby.s.Day.Out.1994.1080p.WEB-DL.AC3.x264.One2loadup.com.mkv
Format : Matroska
Format version : Version 4
File size : 3.77 GiB
Duration : 1 h 38 min
Overall bit rate : 5 459 kb/s
Movie name : [MINI-HD]_Baby.s.Day.Out.1994.1080p.WEB-DL.AC3.x264.One2loadup.com
Encoded date : UTC 2020-10-20 12:22:42
Writing application : mkvmerge v51.0.0 (‘I Wish’) 64-bit
Writing library : libebml v1.4.0 + libmatroska v1.6.2

Video
ID : 1
Format : AVC
Format/Info : Advanced Video Codec
Format profile : [email protected]
Format settings : CABAC / 3 Ref Frames
Format settings, CABAC : Yes
Format settings, ReFrames : 3 frames
Codec ID : V_MPEG4/ISO/AVC
Duration : 1 h 38 min
Bit rate : 4 977 kb/s
Width : 1 920 pixels
Height : 1 040 pixels
Display aspect ratio : 1.85:1
Frame rate mode : Constant
Frame rate : 23.976 (24000/1001) FPS
Color space : YUV
Chroma subsampling : 4:2:0
Bit depth : 8 bits
Scan type : Progressive
Bits/(Pixel*Frame) : 0.104
Stream size : 3.44 GiB (91%)
Title : [MINI-HD]_Baby.s.Day.Out.1994.1080p.WEB-DL.AC3.x264.One2loadup.com
Language : English
Default : Yes
Forced : No
Color range : Limited
Color primaries : BT.709
Transfer characteristics : BT.709
Matrix coefficients : BT.709

Audio #1
ID : 2
Format : E-AC-3
Format/Info : Enhanced AC-3
Commercial name : Dolby Digital Plus
Codec ID : A_EAC3
Duration : 1 h 38 min
Bit rate mode : Constant
Bit rate : 256 kb/s
Channel(s) : 6 channels
Channel layout : L R C LFE Ls Rs
Sampling rate : 48.0 kHz
Frame rate : 31.250 FPS (1536 SPF)
Compression mode : Lossy
Stream size : 181 MiB (5%)
Title : AC-3 English
Language : English
Service kind : Complete Main
Default : Yes
Forced : No

Audio #2
ID : 3
Format : AC-3
Format/Info : Audio Coding 3
Commercial name : Dolby Digital
Codec ID : A_AC3
Duration : 1 h 38 min
Bit rate mode : Constant
Bit rate : 192 kb/s
Channel(s) : 2 channels
Channel layout : L R
Sampling rate : 48.0 kHz
Frame rate : 31.250 FPS (1536 SPF)
Bit depth : 16 bits
Compression mode : Lossy
Delay relative to video : 500 ms
Stream size : 136 MiB (4%)
Title : AC-3 Thai
Language : Thai
Service kind : Complete Main
Default : No
Forced : No

Text #1
ID : 4
Format : VobSub
Muxing mode : zlib
Codec ID : S_VOBSUB
Codec ID/Info : Picture based subtitle format used on DVDs
Duration : 1 h 30 min
Bit rate : 6 796 b/s
Count of elements : 964
Stream size : 4.39 MiB (0%)
Title : Sub Thai 1080p
Language : Thai
Default : No
Forced : No

Text #2
ID : 5
Format : UTF-8
Codec ID : S_TEXT/UTF8
Codec ID/Info : UTF-8 Plain Text
Duration : 1 h 30 min
Bit rate : 79 b/s
Count of elements : 964
Stream size : 52.3 KiB (0%)
Title : Sub Thai SRT
Language : Thai
Default : No
Forced : No

Text #3
ID : 6
Format : PGS
Muxing mode : zlib
Codec ID : S_HDMV/PGS
Codec ID/Info : Picture based subtitle format used on BDs/HD-DVDs
Duration : 1 h 30 min
Bit rate : 23.1 kb/s
Count of elements : 1928
Stream size : 14.9 MiB (0%)
Title : Sub Thai PGS
Language : Thai
Default : Yes
Forced : No

Text #4
ID : 7
Format : VobSub
Muxing mode : zlib
Codec ID : S_VOBSUB
Codec ID/Info : Picture based subtitle format used on DVDs
Duration : 1 h 30 min
Bit rate : 8 384 b/s
Count of elements : 1149
Stream size : 5.43 MiB (0%)
Title : Sub English 1080p
Language : English
Default : No
Forced : No

Text #5
ID : 8
Format : UTF-8
Codec ID : S_TEXT/UTF8
Codec ID/Info : UTF-8 Plain Text
Duration : 1 h 30 min
Bit rate : 41 b/s
Count of elements : 1149
Stream size : 27.6 KiB (0%)
Title : Sub English SRT
Language : English
Default : No
Forced : No

Text #6
ID : 9
Format : PGS
Muxing mode : zlib
Codec ID : S_HDMV/PGS
Codec ID/Info : Picture based subtitle format used on BDs/HD-DVDs
Duration : 1 h 30 min
Bit rate : 28.0 kb/s
Count of elements : 2298
Stream size : 18.1 MiB (0%)
Title : Sub English PGS
Language : English
Default : No
Forced : No

DOWNLOAD


PART01 |||| PART02 |||| PART03 |||| PART04

PART01 |||| PART02 |||| PART03 |||| PART04

PART01 |||| PART02 |||| PART03 |||| PART04

PART01 |||| PART02 |||| PART03 |||| PART04

PART01 |||| PART02 |||| PART03 |||| PART04



แจ้งหนังเสีย หรือโหลดไม่ได้ ทั้งลิ้งฟรีและ vip สามารถกดที่รูปด้านบนนี้ได้เลย

: Disable Comments
%d bloggers like this: