[MINI-HD] Anastasia (1997) อนาสตาเซีย [1080p] [พากย์ไทย 5.1 + เสียงอังกฤษ DTS] [บรรยายไทย + อังกฤษ] [เสียงไทย + ซับไทย] [PANDAFILE]

0

โหลดหนัง Anastasia (1997) อนาสตาเซีย

Anastasia | November 21, 1997 (United States) Summary: The last surviving child of the Russian Royal Family joins two con men to reunite with her grandmother, the Dowager Empress, while the undead Rasputin seeks her death.
Countries: United StatesLanguages: English, Russian, French

เรื่องย่อ Anastasia (1997) อนาสตาเซีย

ภาพยนตร์การ์ตูนเรื่องยิ่งใหญ่ ที่นำเค้าโครงเรื่องมาจากประวัติศาสตร์ของรัสเซีย ผสมผสานการผจญภัยอันสนุกสนาน ตื่นเต้น โรแมนติก และบทเพลงอันไพเราะเมื่อดินแดนรัสเซียตกอยู่ใต้มนต์ดำของพ่อมดอันชั่วร้าย ธิดาองค์สุดท้ายแห่งราชวงศ์โรมานอฟนาม อนาสตาเชีย (เม็ก ไรอัน) ต้องหลบหนีภัยร้ายมาอยู่ในป่า เธอพบกับ ดิมิทรี (จอห์น คูแซ็ก) หนุ่มรูปงามผู้มีคุณธรรม ที่รับอาสาจะพาเธอไปปารีส เพื่อเรียกร้องสิทธิแห่งรัชทายาท แต่ตลอดการเดินทางองค์หญิงต้องผจญกับภัยร้ายจากรัสปูติน (คริสโตเฟอร์ ลอยด์)จอมเจ้าเล่ห์ และ บาร์ท็อก (แฮงก์ อาซาเรีย) ค้างคาวลูกสมุนจอมชั่วร้าย องค์หญิงอนาสตาเชียผู้เลอโฉมจะกลับคืนสู่ราชบัลลังก์ได้หรือไม่!!!

Complete name : [MINI-HD]_Anastasia.1997.1080p.BrRip.DTS.x264.One2loadup.com.mkv
Format : Matroska
Format version : Version 4
File size : 4.64 GiB
Duration : 1 h 34 min
Overall bit rate : 7 059 kb/s
Movie name : [MINI-HD]_Anastasia.1997.1080p.BrRip.DTS.x264.One2loadup.com
Encoded date : UTC 2020-06-07 08:03:47
Writing application : mkvmerge v47.0.0 (‘Black Flag’) 64-bit
Writing library : libebml v1.3.10 + libmatroska v1.5.2

Video
ID : 1
Format : AVC
Format/Info : Advanced Video Codec
Format profile : [email protected]
Format settings : CABAC / 3 Ref Frames
Format settings, CABAC : Yes
Format settings, ReFrames : 3 frames
Codec ID : V_MPEG4/ISO/AVC
Duration : 1 h 34 min
Bit rate : 5 105 kb/s
Width : 1 920 pixels
Height : 810 pixels
Display aspect ratio : 2.40:1
Frame rate mode : Constant
Frame rate : 23.976 (24000/1001) FPS
Color space : YUV
Chroma subsampling : 4:2:0
Bit depth : 8 bits
Scan type : Progressive
Bits/(Pixel*Frame) : 0.137
Stream size : 3.36 GiB (72%)
Title : [MINI-HD]_Anastasia.1997.1080p.BrRip.DTS.x264.One2loadup.com
Language : English
Default : Yes
Forced : No

Audio #1
ID : 2
Format : DTS
Format/Info : Digital Theater Systems
Codec ID : A_DTS
Duration : 1 h 34 min
Bit rate mode : Constant
Bit rate : 1 509 kb/s
Channel(s) : 6 channels
Channel layout : C L R Ls Rs LFE
Sampling rate : 48.0 kHz
Frame rate : 93.750 FPS (512 SPF)
Bit depth : 24 bits
Compression mode : Lossy
Stream size : 1 016 MiB (21%)
Title : DTS English
Language : English
Default : Yes
Forced : No

Audio #2
ID : 3
Format : AC-3
Format/Info : Audio Coding 3
Commercial name : Dolby Digital
Codec ID : A_AC3
Duration : 1 h 34 min
Bit rate mode : Constant
Bit rate : 384 kb/s
Channel(s) : 6 channels
Channel layout : L R C LFE Ls Rs
Sampling rate : 48.0 kHz
Frame rate : 31.250 FPS (1536 SPF)
Bit depth : 16 bits
Compression mode : Lossy
Delay relative to video : 16 ms
Stream size : 259 MiB (5%)
Title : AC-3 Thai
Language : Thai
Service kind : Complete Main
Default : No
Forced : No

Text #1
ID : 4
Format : VobSub
Muxing mode : zlib
Codec ID : S_VOBSUB
Codec ID/Info : Picture based subtitle format used on DVDs
Duration : 1 h 25 min
Bit rate : 11.4 kb/s
Count of elements : 1142
Stream size : 7.03 MiB (0%)
Title : Sub Thai 1080p
Language : Thai
Default : No
Forced : No

Text #2
ID : 5
Format : UTF-8
Codec ID : S_TEXT/UTF8
Codec ID/Info : UTF-8 Plain Text
Duration : 1 h 25 min
Bit rate : 129 b/s
Count of elements : 1142
Stream size : 81.3 KiB (0%)
Title : Sub Thai SRT
Language : Thai
Default : No
Forced : No

Text #3
ID : 6
Format : PGS
Muxing mode : zlib
Codec ID : S_HDMV/PGS
Codec ID/Info : Picture based subtitle format used on BDs/HD-DVDs
Duration : 1 h 25 min
Bit rate : 37.3 kb/s
Count of elements : 2284
Stream size : 23.0 MiB (0%)
Title : Sub Thai PGS
Language : Thai
Default : Yes
Forced : No

Text #4
ID : 7
Format : VobSub
Muxing mode : zlib
Codec ID : S_VOBSUB
Codec ID/Info : Picture based subtitle format used on DVDs
Duration : 1 h 33 min
Bit rate : 19.3 kb/s
Count of elements : 1486
Stream size : 12.9 MiB (0%)
Title : Sub English 1080p
Language : English
Default : No
Forced : No

Text #5
ID : 8
Format : UTF-8
Codec ID : S_TEXT/UTF8
Codec ID/Info : UTF-8 Plain Text
Duration : 1 h 33 min
Bit rate : 80 b/s
Count of elements : 1486
Stream size : 54.7 KiB (0%)
Title : Sub English SRT
Language : English
Default : No
Forced : No

Text #6
ID : 9
Format : PGS
Muxing mode : zlib
Codec ID : S_HDMV/PGS
Codec ID/Info : Picture based subtitle format used on BDs/HD-DVDs
Duration : 1 h 33 min
Bit rate : 53.6 kb/s
Count of elements : 2972
Stream size : 35.7 MiB (1%)
Title : Sub English PGS
Language : English
Default : No
Forced : No

DOWNLOAD


PART01 |||| PART02 |||| PART03 |||| PART04 |||| PART05

PART01 |||| PART02 |||| PART03 |||| PART04 |||| PART05

PART01 |||| PART02 |||| PART03 |||| PART04 |||| PART05

PART01 |||| PART02 |||| PART03 |||| PART04 |||| PART05

PART01 |||| PART02 |||| PART03 |||| PART04 |||| PART05


Leave A Reply

อีเมล์ของคุณจะไม่แสดงให้เห็น Your email address will not be published.

%d bloggers like this: