[MINI-HD] All Quiet on the Western Front (1930) สงคราม และสันติภาพ [1080p] [พากย์ไทย DTS + เสียงอังกฤษ DTS] [บรรยายไทย + อังกฤษ] [เสียงไทย + ซับไทย] [DOSYAUPLOAD]

0

โหลดหนัง All Quiet on the Western Front (1930) สงคราม และสันติภาพ

All Quiet on the Western Front (1930) 2h 32min | Drama, War | 24 August 1930 (USA) Summary: A German youth eagerly enters World War I, but his enthusiasm wanes as he gets a firsthand view of the horror.
Countries: USALanguages: English, French, German, Latin

เรื่องย่อ All Quiet on the Western Front (1930) สงคราม และสันติภาพ

ภาพยนตร์เรื่อง All Quiet on the Western Front นี้ดัดแปลงมาจากหนังสือชื่อ “Im Western Nichts Neues” ที่แต่งโดย Erich Maria Remarque Remarque ชาวเยอรมันที่ถูกเรียกตัวให้เป็นเกณฑ์ทหารในสงครามโลกครั้งที่ 1 เมื่อปี 1916 และจากการไปร่วมรบในครั้งนั้นทำเขาได้รับบาดเจ็บอย่า งมาก 10 ปีต่อมาเมื่อสงครามโลกสิ้นสุดลง เขาได้เขียนหนังสือเล่มดังกล่าว หนึ่งปีให้หลังหนังสือของเขาก็ได้ถูกแปลให้เป็นภาษาอังกฤษโดยใช้ชื่อว่า “All Quiet on the Western Front” ซึ่งเป็นชื่อเดียวกันกับภาพยนตร์ที่จัดทำขึ้นโดยอาศัยโครงเรื่องจากหนังสือเล่มนี้ในปี 1930 ภาพยนตร์เรื่องนี้มีเนื้อเรื่องเกี่ยวกับชีวิตจริงของทหารเยอรมันระหว่างสงครามโลกครั้งที่ 1 โดยจำลองสถานการณ์ให้ผู้ชมเห็นถึงสภาพชีวิตอันโหดร้ายของทหารเยอรมันที่ออกไปรบในแนวหน้าอย่างสมจริง เพื่อต้องการให้ผู้ชมได้ตระหนักถึงสิ่งที่สงครามนำมาให้ ว่านอกจากจะเป็นทางออกที่ใช้ไม่ได้ในการแก้ไขความขัดแย้งแล้วยังเป็นการส่งเยาวชน อนาคตของชาติให้ไปจบชีวิตอย่างน่าอดสูและเปล่าประโยชน์อีกด้วย หนังสือและภาพยนตร์เรื่องนี้ต้องการจะสื่อถึงแนวคิด “ต่อต้านสงคราม” เนื่องจาก “All Quiet on the Western Front” เป็นภาพยนตร์ที่นำเสนอชีวิตจริงของทหารเยอรมันในสนามรบได้อย่างไม่บิดเบือน และใกล้เคียงกับความเป็นจริงที่เกิดขึ้นในสงครามโลกครั้งที่ 1 มากที่สุด จึงได้รับรางวัล Academy Award For Best Picture ในปี 1930 นอกจากนี้ภาพยนตร์เรื่องนี้ยังได้รับคำวิจารณ์ที่ดีจากผู้ชมทั่วโลกว่าเป็นภาพยนตร์เกี่ยวกับสงครามโลกครั้งที่ 1 ที่สมบูรณ์มากที่สุด และยังใช้เป็นสื่อการสอนในโรงเรียนหลายแห่งทั่วโลกอีกด้วย

Complete name : [MINI-HD]_All.Quiet.on.the.Western.Front.1930.1080p.BrRip.DTS.x264.One2loadup.com.mkv
Format : Matroska
Format version : Version 4
File size : 4.18 GiB
Duration : 2 h 13 min
Overall bit rate : 4 481 kb/s
Movie name : [MINI-HD]_All.Quiet.on.the.Western.Front.1930.1080p.BrRip.DTS.x264.One2loadup.com
Encoded date : UTC 2019-06-19 00:35:12
Writing application : mkvmerge v15.0.0 (‘Duel with the Devil’) 64-bit
Writing library : libebml v1.3.5 + libmatroska v1.4.5
Cover : Yes
Attachments : cover.jpg

Video
ID : 1
Format : AVC
Format/Info : Advanced Video Codec
Format profile : [email protected]
Format settings : CABAC / 4 Ref Frames
Format settings, CABAC : Yes
Format settings, ReFrames : 4 frames
Codec ID : V_MPEG4/ISO/AVC
Duration : 2 h 13 min
Bit rate : 2 500 kb/s
Width : 1 488 pixels
Height : 1 080 pixels
Display aspect ratio : 1.378
Frame rate mode : Constant
Frame rate : 23.976 (23976/1000) FPS
Color space : YUV
Chroma subsampling : 4:2:0
Bit depth : 8 bits
Scan type : Progressive
Bits/(Pixel*Frame) : 0.065
Stream size : 2.33 GiB (56%)
Title : [MINI-HD]_All.Quiet.on.the.Western.Front.1930.1080p.BrRip.DTS.x264.One2loadup.com
Writing library : x264 core 152 r2851M ba24899
Encoding settings : cabac=1 / ref=4 / deblock=1:-1:-1 / analyse=0x3:0x113 / me=umh / subme=9 / psy=1 / psy_rd=1.00:0.15 / mixed_ref=1 / me_range=24 / chroma_me=1 / trellis=2 / 8x8dct=1 / cqm=0 / deadzone=21,11 / fast_pskip=1 / chroma_qp_offset=-3 / threads=32 / lookahead_threads=4 / sliced_threads=0 / nr=0 / decimate=1 / interlaced=0 / bluray_compat=0 / constrained_intra=0 / bframes=3 / b_pyramid=2 / b_adapt=2 / b_bias=0 / direct=3 / weightb=1 / open_gop=0 / weightp=2 / keyint=250 / keyint_min=25 / scenecut=40 / intra_refresh=0 / rc_lookahead=50 / rc=2pass / mbtree=1 / bitrate=2500 / ratetol=1.0 / qcomp=0.60 / qpmin=0 / qpmax=69 / qpstep=4 / cplxblur=20.0 / qblur=0.5 / vbv_maxrate=31250 / vbv_bufsize=31250 / nal_hrd=none / filler=0 / ip_ratio=1.40 / aq=3:1.00
Language : English
Default : Yes
Forced : No

Audio #1
ID : 2
Format : DTS
Format/Info : Digital Theater Systems
Codec ID : A_DTS
Duration : 2 h 13 min
Bit rate mode : Constant
Bit rate : 447 kb/s
Channel(s) : 2 channels
Channel layout : L R
Sampling rate : 48.0 kHz
Frame rate : 93.750 FPS (512 SPF)
Bit depth : 24 bits
Compression mode : Lossy
Stream size : 427 MiB (10%)
Title : Thai DTS 2.0 BluRay Master
Language : Thai
Default : Yes
Forced : Yes

Audio #2
ID : 3
Format : DTS
Format/Info : Digital Theater Systems
Codec ID : A_DTS
Duration : 2 h 13 min
Bit rate mode : Constant
Bit rate : 1 509 kb/s
Channel(s) : 2 channels
Channel layout : L R
Sampling rate : 48.0 kHz
Frame rate : 93.750 FPS (512 SPF)
Bit depth : 24 bits
Compression mode : Lossy
Stream size : 1.41 GiB (34%)
Title : Eng DTS 2.0
Language : English
Default : No
Forced : No

Text #1
ID : 4
Format : PGS
Muxing mode : zlib
Codec ID : S_HDMV/PGS
Codec ID/Info : Picture based subtitle format used on BDs/HD-DVDs
Duration : 2 h 10 min
Bit rate : 34.5 kb/s
Count of elements : 3237
Stream size : 32.2 MiB (1%)
Title : Eng
Language : English
Default : No
Forced : No

Text #2
ID : 5
Format : PGS
Muxing mode : zlib
Codec ID : S_HDMV/PGS
Codec ID/Info : Picture based subtitle format used on BDs/HD-DVDs
Duration : 2 h 11 min
Bit rate : 23.2 kb/s
Count of elements : 2571
Stream size : 21.9 MiB (1%)
Title : Thai PGS BluRay Master
Language : Thai
Default : Yes
Forced : Yes

Text #3
ID : 6
Format : VobSub
Muxing mode : zlib
Codec ID : S_VOBSUB
Codec ID/Info : Picture based subtitle format used on DVDs
Duration : 2 h 11 min
Bit rate : 5 818 b/s
Count of elements : 1282
Stream size : 5.49 MiB (0%)
Title : Thai 1080p
Language : Thai
Default : No
Forced : No

Text #4
ID : 7
Format : VobSub
Muxing mode : zlib
Codec ID : S_VOBSUB
Codec ID/Info : Picture based subtitle format used on DVDs
Duration : 2 h 11 min
Bit rate : 1 767 b/s
Count of elements : 1282
Stream size : 1.67 MiB (0%)
Title : Thai 480p
Language : Thai
Default : No
Forced : No

 

DOWNLOAD


PART01 |||| PART02 |||| PART03 |||| PART04

PART01 |||| PART02 |||| PART03 |||| PART04

PART01 |||| PART02 |||| PART03 |||| PART04

PART01 |||| PART02 |||| PART03 |||| PART04

PART01 |||| PART02 |||| PART03 |||| PART04



แจ้งหนังเสีย หรือโหลดไม่ได้ ทั้งลิ้งฟรีและ vip สามารถกดที่รูปด้านบนนี้ได้เลย

: Disable Comments
%d bloggers like this: