[MINI-HD] A Chinese Ghost Story III (1991) โปเยโปโลเย เย้ยฟ้าแล้วก็ท้า ภาค 3 [1080p] [พากย์ไทย 2.0 + เสียงจีน 5.1] [บรรยายไทย + อังกฤษ] [เสียงไทย + ซับไทย] [USERLOAD]

0

โหลดหนัง A Chinese Ghost Story III (1991) โปเยโปโลเย เย้ยฟ้าแล้วก็ท้า ภาค 3

A Chinese Ghost Story III | July 18, 1991 (Hong Kong) Summary: Basically a retread of the first movie, in which the evil Tree Spirit is back with yet another ghost played by Joey Wong. The Swordsman Yen and Leslie Cheung characters are replaced by a Bud... Read all
Countries: Hong KongLanguages: Cantonese, Mandarin

เรื่องย่อ A Chinese Ghost Story III (1991) โปเยโปโลเย เย้ยฟ้าแล้วก็ท้า ภาค 3

หลวงจีนหนุ่ม ซีฟาง ร่วมเดินทางไปกับอาจารย์คือ ไต้ซือไป๋หยุน เพื่ออัญเชิญพระทองไปยังเมืองหนึ่ง ขณะเดินทางได้พบกับปีศาจสาว เสี่ยวจั๋ว ที่ดอยฮั่วฟางทำให้หลงใหล แต่ฟางไม่หลงเสน่ห์ ทำให้จอมปีสาจต้นไม้พันปีไม่พอใจและออกอาละวาด ไต้ซือได้ต่อสู้กับจอมปีศาจและถูกจับตัวไป ฟางจึงร่วมมือกับจอมยุทธรับจ้างที่ชื่อ หยิ่ว เดินทางไปช่วยอาจารย์โดยมีเสี่ยวจั๋วคอยช่วยเหลือทำให้ทั้งคู่เกิดความรัก ต่อกัน แต่อุปสรรคคือจอมปีศาจได้เก็บเถ้ากระดูกของนางไว้ นอกจากต้องช่วยเหลืออาจารย์แล้ว ฟางยังต้องชิงเถ้ากระดูกของคนรักมาให้ได้อีกด้วย

Complete name : [MINI-HD]_A.Chinese.Ghost.Story.3.1991.1080p.BrRip.AC3.x265.THM.One2loadup.com.mkv
Format : Matroska
Format version : Version 4
File size : 6.59 GiB
Duration : 1 h 49 min
Overall bit rate : 8 643 kb/s
Movie name : [MINI-HD]_A.Chinese.Ghost.Story.3.1991.1080p.BrRip.AC3.x265.THM.One2loadup.com
Encoded date : UTC 2022-05-23 06:52:53
Writing application : mkvmerge v62.0.0 (‘Apollo’) 64-bit
Writing library : libebml v1.4.2 + libmatroska v1.6.4

Video
ID : 1
Format : HEVC
Format/Info : High Efficiency Video Coding
Format profile : [email protected]@Main
Codec ID : V_MPEGH/ISO/HEVC
Duration : 1 h 49 min
Bit rate : 8 026 kb/s
Width : 1 920 pixels
Height : 1 040 pixels
Display aspect ratio : 1.85:1
Frame rate mode : Constant
Frame rate : 24.000 FPS
Color space : YUV
Chroma subsampling : 4:2:0 (Type 0)
Bit depth : 8 bits
Bits/(Pixel*Frame) : 0.167
Stream size : 6.12 GiB (93%)
Title : [MINI-HD]_A.Chinese.Ghost.Story.3.1991.1080p.BrRip.AC3.x265.THM.One2loadup.com
Encoding settings : cabac=1 / ref=4 / deblock=1:-3:-3 / analyse=0x3:0x113 / me=umh / subme=10 / psy=1 / psy_rd=1.00:0.10 / mixed_ref=1 / me_range=32 / chroma_me=1 / trellis=2 / cqm=2 / deadzone=21,11 / fast_pskip=0 / chroma_qp_offset=-2 / threads=6 / sliced_threads=0 / nr=0 / decimate=1 / interlaced=0 / constrained_intra=0 / bframes=3 / b_pyramid=2 / b_adapt=2 / b_bias=0 / direct=3 / wpredb=1 / wpredp=2 / keyint=250 / keyint_min=25 / scenecut=40 / intra_refresh=0 / rc_lookahead=60 / rc=2pass / mbtree=1 / bitrate=13381 / ratetol=2.0 / qcomp=0.70 / qpmin=10 / qpmax=51 / qpstep=4 / cplxblur=20.0 / qblur=0.5 / vbv_maxrate=50000 / vbv_bufsize=50000 / ip_ratio=1.40 / aq=1:1.00 / nal_hrd=none
Language : Chinese
Default : No
Forced : Yes
Color range : Limited

Audio #1
ID : 2
Format : AC-3
Format/Info : Audio Coding 3
Commercial name : Dolby Digital
Codec ID : A_AC3
Duration : 1 h 49 min
Bit rate mode : Constant
Bit rate : 448 kb/s
Channel(s) : 6 channels
Channel layout : L R C LFE Ls Rs
Sampling rate : 48.0 kHz
Frame rate : 31.250 FPS (1536 SPF)
Compression mode : Lossy
Stream size : 350 MiB (5%)
Title : Cantonese AC3 5.1
Language : Chinese
Service kind : Complete Main
Default : No
Forced : No

Audio #2
ID : 3
Format : AAC LC
Format/Info : Advanced Audio Codec Low Complexity
Codec ID : A_AAC-2
Duration : 1 h 49 min
Bit rate : 128 kb/s
Channel(s) : 2 channels
Channel layout : L R
Sampling rate : 48.0 kHz
Frame rate : 46.875 FPS (1024 SPF)
Compression mode : Lossy
Stream size : 100.0 MiB (1%)
Title : Thai 2.0
Language : Thai
Default : Yes
Forced : No

Text #1
ID : 4
Format : PGS
Muxing mode : zlib
Codec ID : S_HDMV/PGS
Codec ID/Info : Picture based subtitle format used on BDs/HD-DVDs
Duration : 1 h 46 min
Bit rate : 51.2 kb/s
Count of elements : 3208
Stream size : 39.2 MiB (1%)
Title : English PGS
Language : English
Default : Yes
Forced : No

Text #2
ID : 5
Format : PGS
Muxing mode : zlib
Codec ID : S_HDMV/PGS
Codec ID/Info : Picture based subtitle format used on BDs/HD-DVDs
Duration : 1 h 47 min
Bit rate : 46.1 kb/s
Count of elements : 2646
Stream size : 35.3 MiB (1%)
Title : ThaI pgs
Language : Thai
Default : Yes
Forced : No

DOWNLOAD


PART01 |||| PART02 |||| PART03 |||| PART04 |||| PART05 |||| PART06 |||| PART07

PART01 |||| PART02 |||| PART03 |||| PART04 |||| PART05 |||| PART06 |||| PART07

PART01 |||| PART02 |||| PART03 |||| PART04 |||| PART05 |||| PART06 |||| PART07

PART01 |||| PART02 |||| PART03 |||| PART04 |||| PART05 |||| PART06 |||| PART07

PART01 |||| PART02 |||| PART03 |||| PART04 |||| PART05 |||| PART06 |||| PART07


Leave A Reply

อีเมล์ของคุณจะไม่แสดงให้เห็น Your email address will not be published.

%d bloggers like this: