[MINI-HD] A Chinese Ghost Story (1987) โปเยโปโลเย เย้ยฟ้าแล้วก็ท้า ภาค 1 [1080p] [พากย์ไทย 2.0 + เสียงจีน 5.1] [บรรยายไทย + อังกฤษ] [เสียงไทย + ซับไทย] [USERLOAD]

0

โหลดหนัง A Chinese Ghost Story (1987) โปเยโปโลเย เย้ยฟ้าแล้วก็ท้า ภาค 1

A Chinese Ghost Story | July 18, 1987 (Hong Kong) Summary: After a string of bad luck, a debt collector has no other choice than to spend the night in a haunted temple, where he encounters a ravishing female ghost and later battles to save her soul ... Read all
Countries: Hong KongLanguages: Cantonese

เรื่องย่อ A Chinese Ghost Story (1987) โปเยโปโลเย เย้ยฟ้าแล้วก็ท้า ภาค 1

บัญทิตหนุ่ม หนิงไฉ่เฉิน (เลสลี่ จาง) ดั่นด้นเดินทางไกลรอนแรมไปตามเมืองต่างๆ เพื่องานการเก็บภาษี ในหมู่บ้านป่าเมืองเถื่อน ห่างไกลแห่งหนึ่งกลับต้องประสบกับปัญหาไม่สามารถเก็บ เงินได้ สมุดบันทึกค่าเช่าถูกน้ำจนเปียกหมด เขาต้องอาศัยข้างแรมที่นี่ แต่ห้องพักโรงแรมล้วมมีคนเช่าเต็มจนหมด ทางเลือกเหลือเพียงแค่ วัดร้างปลายดอยเท่านั้นที่จะพอใช้พักอาศัยได้ วัดร้างแห่งนี้เป็นสถานที่ใหญ่โต ประกอบไปด้วยห้องหับมากมาย แต่ทั้งเปลี่ยว และเงียบสงัดชวนให้ขนหัวลุกเป็นยิ่งนัก แค่เสียงลม หรือประตูลั่นขึ้นมา ก็สร้างความตื่นตระหนกได้แล้วที่นั่น หนิงไฉ่เฉิน ต้องพบกับเรื่องประหลาดมากมาย ทั้งการต่อสู้ของยอดฝีมือ กับมือกระบี่นักพรต (อู๋หม่า) ที่สำคัญไปกว่านั้นเขาได้พบกับ หญิงสาวลึกลับ เสี่ยวเชี่ยน (หวังจู่เสียน) ผู้นำพาให้หนิงไฉ่เฉิน ได้พบกับโลกที่เขาไม่เคยคิดว่ามีมาก่อน หญิงสาวปรากฏตัวในด้วยท่าทีที่เย้ายวน แบบที่ไม่ว่าชายใดก็ยากที่จะปฏิเสธได้ หนิงไฉ่เฉิน ก็ไม่ใช่ข้อยกเว้น ต่อมาเขาถึงทราบว่า เสี่ยวเชี่ยน ผู้นี้ไม่ใช่มนุษย์ แต่เป็นวิญญานแร่รอนไม่ถูกกักตัวไว้โดยเจ้าปีศาจต้นไ ม้ ไม่ให้ไปผุดไปเกิด และกลายเป็นเหยื่อล่อมนุษย์เพศชายที่ผ่านเข้ามาในอาญ าบริเวณ เพื่อเป็นเหยื่ออันโอชะแก่เจ้าปีศาจ หนิงไฉ่เฉิน เมื่อได้ทราบเรื่องราวดังกล่าว จึงตัดสินใจยื่นมือเข้าช่วย โดยได้รับความร่วมมือจากนักพรตปราบปีศาจ (อู๋หม่า) ผู้หวังจะกำหราบปีศาจที่สร้างความเดือดร้อน ให้กับผู้คนตนนี้เช่นเดียวกัน

Complete name : [MINI-HD]_A.Chinese.Ghost.Story.1.1987.1080p.BrRip.AC3.x265.THM.One2loadup.com.mkv
Format : Matroska
Format version : Version 4
File size : 5.75 GiB
Duration : 1 h 35 min
Overall bit rate : 8 604 kb/s
Movie name : [MINI-HD]_A.Chinese.Ghost.Story.1.1987.1080p.BrRip.AC3.x265.THM.One2loadup.com
Encoded date : UTC 2022-10-06 16:57:19
Writing application : mkvmerge v67.0.0 (‘Under Stars’) 64-bit
Writing library : libebml v1.4.2 + libmatroska v1.6.4

Video
ID : 1
Format : HEVC
Format/Info : High Efficiency Video Coding
Format profile : [email protected]@Main
Codec ID : V_MPEGH/ISO/HEVC
Duration : 1 h 35 min
Bit rate : 8 067 kb/s
Width : 1 920 pixels
Height : 1 080 pixels
Display aspect ratio : 16:9
Frame rate mode : Constant
Frame rate : 24.000 FPS
Color space : YUV
Chroma subsampling : 4:2:0
Bit depth : 8 bits
Bits/(Pixel*Frame) : 0.162
Stream size : 5.39 GiB (94%)
Title : [MINI-HD]_A.Chinese.Ghost.Story.1.1987.1080p.BrRip.AC3.x265.THM.One2loadup.com
Writing library : x265 0.0:[Windows][MSVC 1800][64 bit] 8bit
Encoding settings : cpuid=1173503 / frame-threads=4 / numa-pools=24 / wpp / no-pmode / no-pme / no-psnr / no-ssim / log-level=2 / input-csp=1 / input-res=1920×1080 / interlace=0 / total-frames=0 / level-idc=0 / high-tier=1 / uhd-bd=0 / ref=1 / no-allow-non-conformance / repeat-headers / annexb / no-aud / no-hrd / info / hash=0 / no-temporal-layers / no-open-gop / min-keyint=1 / keyint=30 / bframes=0 / b-adapt=0 / no-b-pyramid / bframe-bias=0 / rc-lookahead=1 / lookahead-slices=6 / scenecut=0 / no-intra-refresh / ctu=16 / min-cu-size=16 / no-rect / no-amp / max-tu-size=16 / tu-inter-depth=1 / tu-intra-depth=1 / limit-tu=0 / rdoq-level=0 / dynamic-rd=0.00 / no-ssim-rd / no-signhide / no-tskip / nr-intra=0 / nr-inter=0 / no-constrained-intra / strong-intra-smoothing / max-merge=2 / limit-refs=0 / no-limit-modes / me=0 / subme=0 / merange=25 / temporal-mvp / no-weightp / no-weightb / no-analyze-src-pics / no-deblock / no-sao / no-sao-non-deblock / rd=2 / early-skip / rskip / fast-intra / no-tskip-fast / no-cu-lossless / no-b-intra / no-splitrd-skip / rdpenalty=0 / psy-rd=0.00 / psy-rdoq=0.00 / no-rd-refine / analysis-reuse-mode=0 / no-lossless / cbqpoffs=0 / crqpoffs=0 / rc=abr / bitrate=8000 / qcomp=0.60 / qpstep=4 / stats-write=0 / stats-read=0 / ipratio=1.40 / aq-mode=0 / aq-strength=0.00 / no-cutree / zone-count=0 / no-strict-cbr / qg-size=16 / no-rc-grain / qpmax=69 / qpmin=0 / no-const-vbv / sar=0 / overscan=0 / videoformat=5 / range=0 / colorprim=6 / transfer=6 / colormatrix=6 / chromaloc=0 / display-window=0 / max-cll=0,0 / min-luma=0 / max-luma=255 / log2-max-poc-lsb=8 / vui-timing-info / vui-hrd-info / slices=1 / no-opt-qp-pps / no-opt-ref-list-length-pps / no-multi-pass-opt-rps / scenecut-bias=0.05 / no-opt-cu-delta-qp / no-aq-motion / no-hdr / no-hdr-opt / no-dhdr10-opt / analysis-reuse-level=5 / scale-factor=0 / refine-intra=0 / refine-inter=0 / refine-mv=0 / no-limit-sao / ctu-info=0 / no-lowpass-dct / refine-mv-type=0 / copy-pic=1
Default : Yes
Forced : No
Color range : Limited
Color primaries : BT.601 NTSC
Transfer characteristics : BT.601
Matrix coefficients : BT.601

Audio #1
ID : 2
Format : AC-3
Format/Info : Audio Coding 3
Commercial name : Dolby Digital
Codec ID : A_AC3
Duration : 1 h 35 min
Bit rate mode : Constant
Bit rate : 384 kb/s
Channel(s) : 6 channels
Channel layout : L R C LFE Ls Rs
Sampling rate : 48.0 kHz
Frame rate : 31.250 FPS (1536 SPF)
Compression mode : Lossy
Stream size : 263 MiB (4%)
Title : CHI AC3
Language : Chinese
Service kind : Complete Main
Default : No
Forced : No

Audio #2
ID : 3
Format : AAC LC
Format/Info : Advanced Audio Codec Low Complexity
Codec ID : A_AAC-2
Duration : 1 h 35 min
Bit rate : 128 kb/s
Channel(s) : 2 channels
Channel layout : L R
Sampling rate : 48.0 kHz
Frame rate : 46.875 FPS (1024 SPF)
Compression mode : Lossy
Stream size : 87.6 MiB (1%)
Title : Thai
Language : Thai
Default : Yes
Forced : No

Text #1
ID : 4
Format : UTF-8
Codec ID : S_TEXT/UTF8
Codec ID/Info : UTF-8 Plain Text
Duration : 1 h 34 min
Bit rate : 54 b/s
Count of elements : 953
Stream size : 37.4 KiB (0%)
Title : ENG
Language : English
Default : Yes
Forced : No

Text #2
ID : 5
Format : PGS
Muxing mode : zlib
Codec ID : S_HDMV/PGS
Codec ID/Info : Picture based subtitle format used on BDs/HD-DVDs
Duration : 1 h 29 min
Bit rate : 28.6 kb/s
Count of elements : 2010
Stream size : 18.2 MiB (0%)
Title : EN PGS
Language : English
Default : Yes
Forced : No

Text #3
ID : 6
Format : PGS
Muxing mode : zlib
Codec ID : S_HDMV/PGS
Codec ID/Info : Picture based subtitle format used on BDs/HD-DVDs
Duration : 1 h 28 min
Bit rate : 32.7 kb/s
Count of elements : 1700
Stream size : 20.8 MiB (0%)
Title : THAI PGS
Language : Thai
Default : Yes
Forced : No

DOWNLOAD


PART01 |||| PART02 |||| PART03 |||| PART04 |||| PART05 |||| PART06

PART01 |||| PART02 |||| PART03 |||| PART04 |||| PART05 |||| PART06

PART01 |||| PART02 |||| PART03 |||| PART04 |||| PART05 |||| PART06

PART01 |||| PART02 |||| PART03 |||| PART04 |||| PART05 |||| PART06

PART01 |||| PART02 |||| PART03 |||| PART04 |||| PART05 |||| PART06


Leave A Reply

อีเมล์ของคุณจะไม่แสดงให้เห็น Your email address will not be published.

%d bloggers like this: