[MINI-HD] 8 Mile (2002) ดวลแร็บสนั่นโลก [1080p] [พากย์ไทย 5.1 + เสียงอังกฤษ DTS] [บรรยายไทย + อังกฤษ] [เสียงไทย + ซับไทย] [PANDAFILE]

3

โหลดหนัง 8 Mile (2002) ดวลแร็บสนั่นโลก

8 Mile | November 8, 2002 (United States) Summary: A young rapper, struggling with every aspect of his life, wants to make it big but his friends and foes make this odyssey of rap harder than it may seem.
Countries: United States, GermanyLanguages: English

เรื่องย่อ 8 Mile (2002) ดวลแร็บสนั่นโลก

ปี 1995 ดีทรอยท์เมืองแห่งอุตสาหกรรมรถยนต์เมืองแห่งอาชญากรรมเขตเศรษฐกิจตกต่ำเมืองที่ครั้งหนึ่งเคยมั่งคั่ง แต่ปัจจุบันได้กลายเป็นเมืองที่ถูกทิ้งให้เสื่อมถอยโอกาสและการมองโลกในมุมที่งดงามของผู้คนในเมืองที่ครั้งหนึ่งเคยเฟื่องฟูได้อันตรธานหายไป เศรษฐกิจตกต่ำผู้คนแบ่งแยกเป็นก๊กเป็นกลุ่มตามมาด้วยการจราจลครั้งที่เลวร้ายที่สุดในประวัติศาสตร์ของอเมริกาถนนสาย 8 Mile ที่ล้อมรอบเมืองขณะนี้ได้กลายเป็นเส้นแบ่งเขตแดนเมืองกับชานเมืองระหว่างคนผิวดำและผิวขาว แม้ว่าการอยู่รอดเป็นสิ่งสำคัญสำหรับคนระดับล่างในดีทรอยท์แต่สิ่งที่ยังคงจรรโลงอารมณ์อันสุนทรีย์ของผู้คนจำนวนมากไว้ก็คือดนตรีฮิปฮอป [Hip-Hop] การแร็พจึงเปรียบเสมือนเส้นเลือดใหญ่ของคนเมืองนี้

Complete name : [MINI-HD]_8.Mile.2002.1080p.BDRip.x264.DTS.One2loadup.com.mkv
Format : Matroska
Format version : Version 4 / Version 2
File size : 3.70 GiB
Duration : 1 h 50 min
Overall bit rate : 4 795 kb/s
Encoded date : UTC 2010-02-22 21:41:31
Writing application : mkvmerge v5.9.0 (‘On The Loose’) built on Dec 9 2012 15:37:01
Writing library : libebml v1.3.0 + libmatroska v1.4.0

Video
ID : 1
Format : AVC
Format/Info : Advanced Video Codec
Format profile : [email protected]
Format settings, CABAC : Yes
Format settings, RefFrames : 4 frames
Muxing mode : Header stripping
Codec ID : V_MPEG4/ISO/AVC
Duration : 1 h 50 min
Nominal bit rate : 2 665 kb/s
Width : 1 920 pixels
Height : 812 pixels
Display aspect ratio : 2.35:1
Frame rate mode : Constant
Frame rate : 23.976 (24000/1001) FPS
Color space : YUV
Chroma subsampling : 4:2:0
Bit depth : 8 bits
Scan type : Progressive
Bits/(Pixel*Frame) : 0.071
Title : [MINI-HD]_8.Mile.2002.1080p.BDRip.x264.DTS.One2loadup.com
Writing library : x264 core 130 r2273 b3065e6
Encoding settings : cabac=1 / ref=3 / deblock=1:0:0 / analyse=0x3:0x133 / me=umh / subme=5 / psy=1 / psy_rd=1.00:0.00 / mixed_ref=1 / me_range=24 / chroma_me=1 / trellis=1 / 8x8dct=1 / cqm=0 / deadzone=21,11 / fast_pskip=1 / chroma_qp_offset=0 / threads=6 / lookahead_threads=1 / sliced_threads=0 / nr=0 / decimate=1 / interlaced=0 / bluray_compat=0 / constrained_intra=0 / bframes=3 / b_pyramid=2 / b_adapt=2 / b_bias=0 / direct=1 / weightb=1 / open_gop=0 / weightp=2 / keyint=240 / keyint_min=24 / scenecut=40 / intra_refresh=0 / rc_lookahead=40 / rc=abr / mbtree=1 / bitrate=2665 / ratetol=1.0 / qcomp=0.60 / qpmin=0 / qpmax=69 / qpstep=4 / ip_ratio=1.40 / aq=1:1.00
Language : English
Default : Yes
Forced : No
Color range : Limited
Color primaries : BT.709
Transfer characteristics : BT.709
Matrix coefficients : BT.709

Audio #1
ID : 2
Format : AAC
Format/Info : Advanced Audio Codec
Format profile : LC
Codec ID : A_AAC
Duration : 1 h 50 min
Channel(s) : 6 channels
Channel positions : Front: L C R, Side: L R, LFE
Sampling rate : 48.0 kHz
Frame rate : 46.875 FPS (1024 SPF)
Compression mode : Lossy
Title : English AAC.5.1
Language : English
Default : No
Forced : No

Audio #2
ID : 6
Format : DTS
Format/Info : Digital Theater Systems
Mode : 16
Format settings, Endianness : Big
Muxing mode : Header stripping
Codec ID : A_DTS
Duration : 1 h 50 min
Bit rate mode : Constant
Bit rate : 1 509 kb/s
Channel(s) : 6 channels
Channel positions : Front: L C R, Side: L R, LFE
Sampling rate : 48.0 kHz
Frame rate : 93.750 FPS (512 SPF)
Bit depth : 24 bits
Compression mode : Lossy
Stream size : 1.16 GiB (31%)
Title : English DTS. [1509 Kbps] From Bluray.
Language : English
Default : No
Forced : No

Audio #3
ID : 7
Format : AC-3
Format/Info : Audio Coding 3
Format settings, Endianness : Big
Muxing mode : Header stripping
Codec ID : A_AC3
Duration : 1 h 50 min
Bit rate mode : Constant
Bit rate : 384 kb/s
Channel(s) : 6 channels
Channel positions : Front: L C R, Side: L R, LFE
Sampling rate : 48.0 kHz
Frame rate : 31.250 FPS (1536 SPF)
Bit depth : 16 bits
Compression mode : Lossy
Stream size : 303 MiB (8%)
Title : Thai 5.1 [384 Kbps] AC.3
Language : Thai
Service kind : Complete Main
Default : Yes
Forced : No

Text #1
ID : 3
Format : VobSub
Muxing mode : zlib
Codec ID : S_VOBSUB
Codec ID/Info : Picture based subtitle format used on DVDs
Title : Thai 480p. [White]
Language : Thai
Default : Yes
Forced : No

Text #2
ID : 4
Format : VobSub
Muxing mode : zlib
Codec ID : S_VOBSUB
Codec ID/Info : Picture based subtitle format used on DVDs
Title : Thai 480p. [Low]
Language : Thai
Default : No
Forced : No

Text #3
ID : 5
Format : UTF-8
Codec ID : S_TEXT/UTF8
Codec ID/Info : UTF-8 Plain Text
Title : English SRT.
Language : English
Default : No
Forced : No

 

DOWNLOAD


PART01 |||| PART02 |||| PART03 |||| PART04

PART01 |||| PART02 |||| PART03 |||| PART04

PART01 |||| PART02 |||| PART03 |||| PART04

PART01 |||| PART02 |||| PART03 |||| PART04

PART01 |||| PART02 |||| PART03 |||| PART04


3 Comments
  1. แหม่มโพธิ์ดํา

    วันนี้มีแต่หนังน่าดูจัดเรื่อง 8 Mile True Grit และ The Homesman เป็นที่เรียบร้อย ขอบคุณครับ

  2. Rosem says

    ไฟล์เสียป่ะเตง ‘A’

    1. Admin
      Admin says

      แก้ไขเรียบร้อยฮ๊ะ

Leave A Reply

อีเมล์ของคุณจะไม่แสดงให้เห็น Your email address will not be published.

%d bloggers like this: