[MIN Super-HQ] E Riam Sing (2020) อีเรียมซิ่ง [1080p] [NETFLIX] [พากย์ไทย 5.1] [บรรยายไทย + อังกฤษ] [เสียงไทย + ซับไทย] [DOSYAUPLOAD]

0

โหลดหนัง E Riam Sing (2020) อีเรียมซิ่ง

E Riam Sing (2020) Action, Adventure, Comedy | 19 November 2020 (Thailand) Summary: After her darling family got kidnapped by group of brutal gangsters, with the objective of forcing her to marry their boss, so Riam has to find the way to rescue her family members and to ... See full summary »
Countries: ThailandLanguages: Thai

เรื่องย่อ E Riam Sing (2020) อีเรียมซิ่ง

เรียม (เบลล่า ราณี) เจ้าแม่ตัวอิจฉาประจำหมู่บ้านบางน้ำกร่อย หล่อนอิจฉาแรม (แพท ณปภา) พี่สาวของตัวเองสุดๆ เพราะพี่สาวทั้งสวยงามชดช้อยและมีกิริยามารยาทอ่อนหวาน ซ้ำยังทำขนมอร่อยรสเลิศผิดกับตัวเธอเองที่วันๆ เอาแต่เที่ยวเล่นสนุกอยู่กับฟักทองเพื่อนและญาติสนิท ความแตกต่างกันของ เรียม กับ แรม ทำให้ชาวบ้านนำเอาไปเปรียบเทียบอยู่ทุกเมื่อเชื่อวันประเด็นนี้จึงทำให้ เรียม ออกอาการอิจฉาพี่สาวและหาวิธีกลั่นแกล้งพี่อยู่ตลอดแต่ทุกอย่างก็เปลี่ยนไปเพราะการมาของโจรโฉดที่มีนามว่าแก๊งโจรฟันแดงพวกมันมาพร้อมกับคาถาอาคมร้ายกาจและหวังมาจับตัวพี่สาวและแม่ของเธอไปทำให้แก๊งเรียมซิ่งจะต้องออกโรงและผจญภัยตามไปช่วยเหลือคนในครอบครัวกับภารกิจสุดท้าทาย!

Complete name : [MINI Super-HQ]_E.Riam.Sing.2020.1080p.NF.WEB-DL.EAC3.x264.One2loadup.com.mkv
Format : Matroska
Format version : Version 4
File size : 3.31 GiB
Duration : 1 h 43 min
Overall bit rate : 4 582 kb/s
Movie name : [MINI Super-HQ]_E.Riam.Sing.2020.1080p.NF.WEB-DL.EAC3.x264.One2loadup.com
Encoded date : UTC 2021-04-18 17:42:25
Writing application : mkvmerge v56.0.0 (‘Strasbourg / St. Denis’) 64-bit
Writing library : libebml v1.4.2 + libmatroska v1.6.4

Video
ID : 1
Format : AVC
Format/Info : Advanced Video Codec
Format profile : [email protected]
Format settings : CABAC / 4 Ref Frames
Format settings, CABAC : Yes
Format settings, Reference : 4 frames
Codec ID : V_MPEG4/ISO/AVC
Duration : 1 h 43 min
Bit rate : 3 924 kb/s
Width : 1 920 pixels
Height : 1 080 pixels
Display aspect ratio : 16:9
Frame rate mode : Constant
Frame rate : 25.000 FPS
Color space : YUV
Chroma subsampling : 4:2:0
Bit depth : 8 bits
Scan type : Progressive
Bits/(Pixel*Frame) : 0.076
Stream size : 2.84 GiB (86%)
Title : [MINI Super-HQ]_E.Riam.Sing.2020.1080p.NF.WEB-DL.EAC3.x264.One2loadup.com
Default : Yes
Forced : No

Audio
ID : 2
Format : E-AC-3
Format/Info : Enhanced AC-3
Commercial name : Dolby Digital Plus
Codec ID : A_EAC3
Duration : 1 h 43 min
Bit rate mode : Constant
Bit rate : 640 kb/s
Channel(s) : 6 channels
Channel layout : L R C LFE Ls Rs
Sampling rate : 48.0 kHz
Frame rate : 31.250 FPS (1536 SPF)
Compression mode : Lossy
Stream size : 474 MiB (14%)
Title : [Thai-AC-3 5.1]
Language : Thai
Service kind : Complete Main
Default : Yes
Forced : No

Text #1
ID : 3
Format : PGS
Muxing mode : zlib
Codec ID : S_HDMV/PGS
Codec ID/Info : Picture based subtitle format used on BDs/HD-DVDs
Duration : 1 h 40 min
Bit rate : 28.0 kb/s
Count of elements : 3098
Stream size : 20.2 MiB (1%)
Title : [Thai Netflix PGS]
Language : Thai
Default : No
Forced : No

Text #2
ID : 4
Format : UTF-8
Codec ID : S_TEXT/UTF8
Codec ID/Info : UTF-8 Plain Text
Duration : 1 h 40 min
Bit rate : 151 b/s
Count of elements : 1549
Stream size : 112 KiB (0%)
Title : SRT
Language : Thai
Default : No
Forced : No

Text #3
ID : 5
Format : UTF-8
Codec ID : S_TEXT/UTF8
Codec ID/Info : UTF-8 Plain Text
Duration : 1 h 40 min
Bit rate : 39 b/s
Count of elements : 1188
Stream size : 28.7 KiB (0%)
Title : SRT
Language : English
Default : No
Forced : No

DOWNLOAD


PART01 |||| PART02 |||| PART03 |||| PART04

PART01 |||| PART02 |||| PART03 |||| PART04

PART01 |||| PART02 |||| PART03 |||| PART04

PART01 |||| PART02 |||| PART03 |||| PART04

PART01 |||| PART02 |||| PART03 |||| PART04


Leave A Reply

Your email address will not be published.

%d bloggers like this: