[MINI-HD] Lilo & Stitch 2: Stitch Has a Glitch (2005) ลีโล แอนด์ สติทช์ 2 ตอนฉันรักนายเจ้าสติทช์ตัวร้าย ภาค 2 [1080p] [พากย์ไทย 5.1 + เสียงอังกฤษ 5.1] [บรรยายไทย + อังกฤษ] [เสียงไทย + ซับไทย] [PANDAFILE]

6

Lilo & Stitch 2: Stitch Has a Glitch (2005) ลีโล แอนด์ สติทช์ 2 ตอนฉันรักนายเจ้าสติทช์ตัวร้าย ภาค 2

โหลดหนัง Lilo & Stitch 2: Stitch Has a Glitch (2005) ลีโล แอนด์ สติทช์ 2 ตอนฉันรักนายเจ้าสติทช์ตัวร้าย ภาค 2 

Lilo & Stitch 2: Stitch Has a Glitch | August 30, 2005 (United States) Summary: A malfunction threatens to destroy Stitch and his friendship with Lilo!
Countries: United StatesLanguages: English, French, Spanish

เรื่องย่อ Lilo & Stitch 2: Stitch Has a Glitch (2005) ลีโล แอนด์ สติทช์ 2 ตอนฉันรักนายเจ้าสติทช์ตัวร้าย

เรื่องราวความประทับใจของสติทช์กับลีโลยังมีต่อมาในภาพยนตร์แอนิเมชั่นเรื่องใหม่จากดิสนีย์ คราวนี้เพื่อนๆ คนโปรดของคุณหนูกลับมาอีกครั้งในการผจญภัยชวนขำขันที่เกี่ยวข้องกับมิตรภาพไม่มีวันถูกพรากออกจากกันก่อนที่การทดลองหมายเลข 626 จะร่อนสู่ฮาวาย สติทช์มีชีวิตที่เปี่ยมไปด้วยความสุข เขาได้ช่วยให้ลีโลก้าวเดินตามรอยเท้าแม่ของเธอ เมื่อลีโลเตรียมตัวเข้าประกวดงานประจำปีของเกาะ ชีวิตดูเหมือนลงตัวได้อย่างสวยงาม แต่แล้วจู่ๆ สติทช์ก็เกิดอาการปั่นป่วนกลายเป็นเจ้าตัวแสบ เวลานี้มันขึ้นอยู่กับลีโล, นานี, จัมบ้า และเหล่าสมาชิกครอบครัวของพวกเขาต้องหาทางช่วยเหลือให้สติทช์กลับมาเป็นสติทช์คนเดิมให้ได้

Complete name : [MINI-HD]_Lilo.&.Stitch.2.Stitch.Has.A.Glitch.2005.AC3.One2loadup.com.mkv
Format : Matroska
Format version : Version 4 / Version 2
File size : 4.24 GiB
Duration : 1 h 8 min
Overall bit rate mode : Variable
Overall bit rate : 8 906 kb/s
Encoded date : UTC 2010-02-22 21:41:31
Writing application : mkvmerge v5.9.0 (‘On The Loose’) built on Dec 9 2012 15:37:01
Writing library : libebml v1.3.0 + libmatroska v1.4.0

Video
ID : 1
Format : AVC
Format/Info : Advanced Video Codec
Format profile : [email protected]
Format settings, CABAC : Yes
Format settings, RefFrames : 2 frames
Format settings, GOP : M=3, N=24
Codec ID : V_MPEG4/ISO/AVC
Duration : 1 h 8 min
Bit rate mode : Variable
Bit rate : 7 577 kb/s
Maximum bit rate : 30.0 Mb/s
Width : 1 920 pixels
Height : 1 080 pixels
Display aspect ratio : 16:9
Frame rate mode : Constant
Frame rate : 23.976 (24000/1001) FPS
Color space : YUV
Chroma subsampling : 4:2:0
Bit depth : 8 bits
Scan type : Progressive
Bits/(Pixel*Frame) : 0.152
Stream size : 3.61 GiB (85%)
Writing library : x264 core
Default : Yes
Forced : No
Color range : Limited
Color primaries : BT.709
Transfer characteristics : BT.709
Matrix coefficients : BT.709

Audio #1
ID : 2
Format : AC-3
Format/Info : Audio Coding 3
Format settings, Endianness : Big
Codec ID : A_AC3
Duration : 1 h 8 min
Bit rate mode : Constant
Bit rate : 448 kb/s
Channel(s) : 6 channels
Channel positions : Front: L C R, Side: L R, LFE
Sampling rate : 48.0 kHz
Frame rate : 31.250 FPS (1536 SPF)
Bit depth : 16 bits
Compression mode : Lossy
Stream size : 219 MiB (5%)
Language : English
Service kind : Complete Main
Default : Yes
Forced : No

Audio #2
ID : 3
Format : AC-3
Format/Info : Audio Coding 3
Format settings, Endianness : Big
Codec ID : A_AC3
Duration : 1 h 8 min
Bit rate mode : Constant
Bit rate : 384 kb/s
Channel(s) : 2 channels
Channel positions : Front: L R
Sampling rate : 48.0 kHz
Frame rate : 31.250 FPS (1536 SPF)
Bit depth : 16 bits
Compression mode : Lossy
Stream size : 187 MiB (4%)
Language : Thai
Service kind : Complete Main
Default : No
Forced : No

Audio #3
ID : 4
Format : AC-3
Format/Info : Audio Coding 3
Mode : Dolby Digital
Format settings, Endianness : Big
Codec ID : A_AC3
Duration : 1 h 8 min
Bit rate mode : Constant
Bit rate : 320 kb/s
Channel(s) : 2 channels
Channel positions : Front: L R
Sampling rate : 48.0 kHz
Frame rate : 31.250 FPS (1536 SPF)
Bit depth : 16 bits
Compression mode : Lossy
Stream size : 156 MiB (4%)
Language : English
Service kind : Complete Main
Default : No
Forced : No

Text #1
ID : 5
Format : VobSub
Codec ID : S_VOBSUB
Codec ID/Info : Picture based subtitle format used on DVDs
Language : Thai
Default : Yes
Forced : No

Text #2
ID : 6
Format : VobSub
Codec ID : S_VOBSUB
Codec ID/Info : Picture based subtitle format used on DVDs
Language : English
Default : No
Forced : No

Text #3
ID : 7
Format : PGS
Codec ID : S_HDMV/PGS
Codec ID/Info : Picture based subtitle format used on BDs/HD-DVDs
Language : English
Default : No
Forced : No

Text #4
ID : 8
Format : PGS
Codec ID : S_HDMV/PGS
Codec ID/Info : Picture based subtitle format used on BDs/HD-DVDs
Language : English
Default : No
Forced : No

Text #5
ID : 9
Format : PGS
Codec ID : S_HDMV/PGS
Codec ID/Info : Picture based subtitle format used on BDs/HD-DVDs
Language : Thai
Default : No
Forced : No

Text #6
ID : 10
Format : PGS
Codec ID : S_HDMV/PGS
Codec ID/Info : Picture based subtitle format used on BDs/HD-DVDs
Language : Thai
Default : No
Forced : No

DOWNLOAD


PART01 |||| PART02 |||| PART03 |||| PART04 |||| PART05

PART01 |||| PART02 |||| PART03 |||| PART04 |||| PART05

PART01 |||| PART02 |||| PART03 |||| PART04 |||| PART05

PART01 |||| PART02 |||| PART03 |||| PART04 |||| PART05

PART01 |||| PART02 |||| PART03 |||| PART04 |||| PART05


6 Comments
  1. Theera Seetasut
    Theera Seetasut says

    โหลดไม่ได้ครับบ

    1. Admin
      Admin says

      แก้ไขเรียบร้อยฮ๊ะ

  2. Thawatchai
    Thawatchai says

    Lilo Stitch 2 2005 ยังไม่ได้อัพโหลด Zolofile ครับ

    1. Admin
      Admin says

      แก้ไขเรียบร้อยยฮ๊ะ

      1. Thawatchai
        Thawatchai says

        ยังโหลดไม่ได้ครับ

        1. Admin
          Admin says

          แก้ไขเรียบร้อยฮ๊ะ

Leave A Reply

อีเมล์ของคุณจะไม่แสดงให้เห็น Your email address will not be published.

%d bloggers like this: