[MINI-HD] James Bond 007 : Casino Royale (2006) 007 พยัคฆ์ร้ายเดิมพันระห่ำโลก [1080p] [พากย์ไทย DTS + เสียงอังกฤษ 5.1] [บรรยายไทย + อังกฤษ] [เสียงไทย + ซับไทย] [PANDAFILE]

4

โหลดหนัง James Bond 007 : Casino Royale (2006) 007 พยัคฆ์ร้ายเดิมพันระห่ำโลก 

Casino Royale | November 17, 2006 (United States) Summary: After earning 00 status and a licence to kill, secret agent James Bond sets out on his first mission as 007. Bond must defeat a private banker funding terrorists in a high-stakes game of pok... Read all
Countries: United Kingdom, Czech Republic, United States, Germany, BahamasLanguages: English, Serbian, German, Italian, French

เรื่องย่อ James Bond 007 : Casino Royale (2006) 007 พยัคฆ์ร้ายเดิมพันระห่ำโลก

นับเป็น เจมส์ บอนด์ ภาคที่ 21 สร้างจากหนังสือ Casino Royale นิยาย เจมส์ บอนด์ เล่มแรกสุดของ เอียน เฟรมมิ่ง ซึ่งปรากฏสู่สายตาผู้ชมครั้งแรกในรูปแบบซีรีส์ทางโทร ทัศน์ของอังกฤษเมื่อปี 1950 ก่อนจะถูกนำมาสร้างเป็น ซีรีส์สายลับ เจมส์ บอนด์ ครั้งแรกในช่วงปี 1960 และ.สร้างเป็นภาพยนตร์อีกครั้งภายใต้การดูแลของ โซนี่ พิคเจอรส์ สตูดิโอในปี 2006 หลังจากที่ได้รับรหัสประจำตัว 007 ได้ไม่นาน ภารกิจเสี่ยงตายครั้งแรกของสายลับ เจมส์ บอนด์ก็อุบัติขึ้น ชีวิต อาชีพ และ.จิตวิญญาณของชายหนุ่มถูกเปลี่ยนจากคนธรรมดา ไปสู่สายลับมือล่าสังหาร บอนด์ถูกส่งไปปฏิบัติภารกิจครั้งแรกที่บ่อน คาสิโนรอยัล เพื่อสืบและ.ล้างบางกลุ่มผู้ก่อการร้ายรายใหญ่ที่คาส ิโนรอยัล บอนด์ได้เผชิญหน้ากับ Le Chiffre อาชญากรร้ายข้ามชาติ หัวหน้ากลุ่มผู้ก่อการร้าย ดังนั้นเพื่อโค่น Le Chiffre และ.ล้างบางแผนการก่อการร้ายให้สิ้นซาก บอนด์จึงต้องต่อกรกับ Le Chiffre นำมาซึ่งการล่าระห่ำ และ.เกมการพนันที่เดิมพันด้วยชีวิต ภารกิจแรกของสายลับ เจมส์ บอนด์ ครั้งนี้จึงเป็นภารกิจที่ระห่ำ และ.เสี่ยงตายที่สุดในบรรดา เจมส์ บอนดทุก

Complete name : [MINI-HD]_Casino.Royale.2006.1080p.HQ.THAIDTS.x264.BDMASTER.One2loadup.com.mkv
Format : Matroska
Format version : Version 4 / Version 2
File size : 4.23 GiB
Duration : 2 h 24 min
Overall bit rate : 4 184 kb/s
Movie name : [MINI-HD]_Casino.Royale.2006.1080p.HQ.THAIDTS.x264.BDMASTER.One2loadup.com
Encoded date : UTC 2015-11-07 05:51:56
Writing application : mkvmerge v8.1.0 (‘Psychedelic Postcard’) 32bit
Writing library : libebml v1.3.1 + libmatroska v1.4.2

Video
ID : 1
Format : AVC
Format/Info : Advanced Video Codec
Format profile : [email protected]
Format settings, CABAC : Yes
Format settings, RefFrames : 5 frames
Codec ID : V_MPEG4/ISO/AVC
Duration : 2 h 24 min
Bit rate : 3 000 kb/s
Width : 1 920 pixels
Height : 792 pixels
Display aspect ratio : 2.40:1
Frame rate mode : Constant
Frame rate : 23.976 (24000/1001) FPS
Color space : YUV
Chroma subsampling : 4:2:0
Bit depth : 8 bits
Scan type : Progressive
Bits/(Pixel*Frame) : 0.082
Stream size : 2.98 GiB (70%)
Title : [MINI-HD]_Casino.Royale.2006.1080p.HQ.THAIDTS.x264.BDMASTER.One2loadup.com
Writing library : x264 core 142 r2431 ac76440
Encoding settings : cabac=1 / ref=5 / deblock=1:0:0 / analyse=0x3:0x133 / me=umh / subme=10 / psy=1 / psy_rd=1.00:0.00 / mixed_ref=1 / me_range=24 / chroma_me=1 / trellis=2 / 8x8dct=1 / cqm=0 / deadzone=21,11 / fast_pskip=1 / chroma_qp_offset=-2 / threads=12 / lookahead_threads=2 / sliced_threads=0 / nr=0 / decimate=1 / interlaced=0 / bluray_compat=0 / constrained_intra=0 / bframes=8 / b_pyramid=2 / b_adapt=2 / b_bias=0 / direct=3 / weightb=1 / open_gop=0 / weightp=2 / keyint=240 / keyint_min=23 / scenecut=40 / intra_refresh=0 / rc_lookahead=60 / rc=2pass / mbtree=1 / bitrate=3000 / ratetol=1.0 / qcomp=0.60 / qpmin=0 / qpmax=69 / qpstep=4 / cplxblur=20.0 / qblur=0.5 / vbv_maxrate=62500 / vbv_bufsize=78125 / nal_hrd=none / filler=0 / ip_ratio=1.40 / aq=1:1.00
Language : English
Default : Yes
Forced : No

Audio #1
ID : 2
Format : DTS
Format/Info : Digital Theater Systems
Mode : 16
Format settings, Endianness : Big
Codec ID : A_DTS
Duration : 2 h 24 min
Bit rate mode : Constant
Bit rate : 768 kb/s
Channel(s) : 6 channels
Channel positions : Front: L C R, Side: L R, LFE
Sampling rate : 48.0 kHz
Frame rate : 93.750 FPS (512 SPF)
Bit depth : 24 bits
Compression mode : Lossy
Delay relative to video : 1 s 0 ms
Stream size : 794 MiB (18%)
Title : DTS
Language : Thai
Default : Yes
Forced : Yes

Audio #2
ID : 3
Format : AC-3
Format/Info : Audio Coding 3
Format settings, Endianness : Big
Codec ID : A_AC3
Duration : 2 h 24 min
Bit rate mode : Constant
Bit rate : 384 kb/s
Channel(s) : 6 channels
Channel positions : Front: L C R, Side: L R, LFE
Sampling rate : 48.0 kHz
Frame rate : 31.250 FPS (1536 SPF)
Bit depth : 16 bits
Compression mode : Lossy
Stream size : 397 MiB (9%)
Title : AC3
Language : English
Service kind : Complete Main
Default : No
Forced : No

Text #1
ID : 4
Format : VobSub
Muxing mode : zlib
Codec ID : S_VOBSUB
Codec ID/Info : Picture based subtitle format used on DVDs
Title : 1080P BD MASTER
Language : Thai
Default : No
Forced : No

Text #2
ID : 5
Format : VobSub
Muxing mode : zlib
Codec ID : S_VOBSUB
Codec ID/Info : Picture based subtitle format used on DVDs
Title : 1080P BD UNDER
Language : Thai
Default : No
Forced : No

Text #3
ID : 6
Format : VobSub
Muxing mode : zlib
Codec ID : S_VOBSUB
Codec ID/Info : Picture based subtitle format used on DVDs
Title : 480P
Language : Thai
Default : No
Forced : No

Text #4
ID : 7
Format : PGS
Muxing mode : zlib
Codec ID : S_HDMV/PGS
Codec ID/Info : Picture based subtitle format used on BDs/HD-DVDs
Title : BD MASTER
Language : Thai
Default : Yes
Forced : Yes

Text #5
ID : 8
Format : PGS
Muxing mode : zlib
Codec ID : S_HDMV/PGS
Codec ID/Info : Picture based subtitle format used on BDs/HD-DVDs
Title : BD UNDER
Language : Thai
Default : No
Forced : No

Text #6
ID : 9
Format : PGS
Muxing mode : zlib
Codec ID : S_HDMV/PGS
Codec ID/Info : Picture based subtitle format used on BDs/HD-DVDs
Title : BD MASTER
Language : English
Default : No
Forced : No

Menu
00:00:00.000 : en:00:00:00.000
00:09:37.285 : en:00:09:37.285
00:19:30.503 : en:00:19:30.503
00:25:35.325 : en:00:25:35.325
00:35:18.241 : en:00:35:18.241
00:39:58.855 : en:00:39:58.855
00:45:21.761 : en:00:45:21.761
00:57:50.384 : en:00:57:50.384
01:07:21.621 : en:01:07:21.621
01:17:11.377 : en:01:17:11.377
01:30:05.400 : en:01:30:05.400
01:38:40.498 : en:01:38:40.498
01:43:28.953 : en:01:43:28.953
01:54:02.377 : en:01:54:02.377
02:05:44.704 : en:02:05:44.704
02:13:19.033 : en:02:13:19.033

DOWNLOAD


PART01 |||| PART02 |||| PART03 |||| PART04 |||| PART05

PART01 |||| PART02 |||| PART03 |||| PART04 |||| PART05

PART01 |||| PART02 |||| PART03 |||| PART04 |||| PART05

PART01 |||| PART02 |||| PART03 |||| PART04 |||| PART05

PART01 |||| PART02 |||| PART03 |||| PART04 |||| PART05


4 Comments
  1. Panitan Muenduang
    Panitan Muenduang says

    อัพไฟล์ของ openload ให้หน่อยได้ไหมคับ

    1. Admin
      Admin says

      แก้ไขเรียบร้อยฮ๊ะ

  2. Black Pearl The Slayer
    Black Pearl The Slayer says

    BAYFILES โหลดไม่ได้สักอันเลยครับ ช่วยแก้ไขหน่อยครับ 🙏

    1. Admin
      Admin says

      แก้ไขเรียบร้อยฮ๊ะ

Leave A Reply

อีเมล์ของคุณจะไม่แสดงให้เห็น Your email address will not be published.

%d bloggers like this: