[ฝรั่ง] Falcon Rising (2014) ผงาด ล่าแค้น [1080p] [พากย์อังกฤษ 5.1] [Soundtrack บรรยายไทย] [Netflix-WEB-DL] [เสียงอังกฤษ + ซับไทย] [PANDAFILE]

2

โหลดหนัง Falcon Rising (2014) ผงาด ล่าแค้น

Falcon Rising | September 4, 2014 (United States) Summary: Chapman is an ex-marine in Brazil's slums, battling the yakuza outfit who attacked his sister and left her for dead.
Countries: United StatesLanguages: English

เรื่องย่อ Falcon Rising (2014) ผงาด ล่าแค้น

ปรมาจารย์ศิลปะการป้องกันตัวและอดีตนาวิกโยธินมุ่งหน้าสู่บราซิลเพื่อตามล่ากลุ่มคนที่ทำร้ายน้องสาวของเขาอย่างโหดเหี้ยมและหลงเข้าไปในถิ่นของยากูซ่า

Complete name : Falcon Rising.2014.1080p.Soundtrack.Sub-th.One2loadup.com.mkv
Format : Matroska
Format version : Version 4 / Version 2
File size : 4.70 GiB
Duration : 1 h 40 min
Overall bit rate : 6 671 kb/s
Encoded date : UTC 2018-04-16 12:37:20
Writing application : mkvmerge v21.0.0 (‘Tardigrades Will Inherit The Earth’) 64-bit
Writing library : libebml v1.3.5 + libmatroska v1.4.8

Video
ID : 2
Format : AVC
Format/Info : Advanced Video Codec
Format profile : [email protected]
Format settings : CABAC / 2 Ref Frames
Format settings, CABAC : Yes
Format settings, ReFrames : 2 frames
Format settings, GOP : M=1, N=12
Codec ID : V_MPEG4/ISO/AVC
Duration : 1 h 40 min
Bit rate : 6 465 kb/s
Width : 1 920 pixels
Height : 1 080 pixels
Display aspect ratio : 16:9
Frame rate mode : Constant
Frame rate : 23.976 (23976/1000) FPS
Color space : YUV
Chroma subsampling : 4:2:0
Bit depth : 8 bits
Scan type : Progressive
Bits/(Pixel*Frame) : 0.130
Stream size : 4.55 GiB (97%)
Default : Yes
Forced : No

Audio
ID : 1
Format : E-AC-3
Format/Info : Enhanced Audio Coding 3
Codec ID : A_EAC3
Duration : 1 h 40 min
Bit rate mode : Constant
Bit rate : 192 kb/s
Channel(s) : 6 channels
Channel positions : Front: L C R, Side: L R, LFE
Sampling rate : 48.0 kHz
Frame rate : 187.500 FPS (256 SPF)
Compression mode : Lossy
Delay relative to video : -42 ms
Stream size : 138 MiB (3%)
Service kind : Complete Main
Default : Yes
Forced : No

Text #1
ID : 3
Format : PGS
Muxing mode : zlib
Codec ID : S_HDMV/PGS
Codec ID/Info : Picture based subtitle format used on BDs/HD-DVDs
Duration : 1 h 34 min
Bit rate : 22.5 kb/s
Count of elements : 1528
Stream size : 15.2 MiB (0%)
Default : Yes
Forced : No

Text #2
ID : 4
Format : VobSub
Muxing mode : zlib
Codec ID : S_VOBSUB
Codec ID/Info : Picture based subtitle format used on DVDs
Duration : 1 h 34 min
Bit rate : 6 469 b/s
Count of elements : 764
Stream size : 4.38 MiB (0%)
Language : English
Default : No
Forced : No

Text #3
ID : 5
Format : UTF-8
Codec ID : S_TEXT/UTF8
Codec ID/Info : UTF-8 Plain Text
Duration : 1 h 34 min
Bit rate : 38 b/s
Count of elements : 972
Stream size : 26.8 KiB (0%)
Default : No
Forced : No

DOWNLOAD


PART01 |||| PART02 |||| PART03 |||| PART04 |||| PART05

PART01 |||| PART02 |||| PART03 |||| PART04 |||| PART05

PART01 |||| PART02 |||| PART03 |||| PART04 |||| PART05

PART01 |||| PART02 |||| PART03 |||| PART04 |||| PART05


2 Comments
  1. Sumlee999
    Sumlee999 says

    ขอภาคไทยได้มั้ยอาาา

    1. Admin
      Admin says

      หนังยังไม่มีพากย์ไทยฮ๊ะ

Leave A Reply

อีเมล์ของคุณจะไม่แสดงให้เห็น Your email address will not be published.

%d bloggers like this: