[MINI-HD] Dylan Dog: Dead of Night (2010) ฮีโร่รัตติกาล ถล่มมารหมู่อสูร [1080p] [พากย์ไทย 5.1 + เสียงอังกฤษ 5.1] [บรรยายไทย + อังกฤษ] [เสียงไทย + ซับไทย] [PANDAFILE]

4

โหลดหนัง Dylan Dog: Dead of Night (2010) ฮีโร่รัตติกาล ถล่มมารหมู่อสูร

Dylan Dog: Dead of Night | April 29, 2011 (United States) Summary: The adventures of supernatural private investigator, Dylan Dog, who seeks out the monsters of the Louisiana bayou in his signature red shirt, black jacket, and blue jeans.
Countries: United StatesLanguages: English

เรื่องย่อ Dylan Dog: Dead of Night (2010) ฮีโร่รัตติกาล ถล่มมารหมู่อสูร

ดีแลน (แบรนดอน เราธ์) นักสืบคนแกร่งผู้หันหลังให้กับโลกของแวมไพร์ ซอมบี้และมนุษย์หมาป่าเมื่อเขาสูญเสียคนที่รักไป เรื่องราวของเราเริ่มต้นขึ้นเมื่ออลิซาเบธ (อานิต้า บรีเอม) หญิงสาวที่กำลังตกอยู่ในความเดือดร้อน จ้างเขาให้ไขปริศนาการฆาตกรรมสุดสยองของพ่อเธอ เมื่อดีแลนพบเส้นขนของมนุษย์หมาป่าในที่เกิดเหตุ เขาก็รู้ทันทีว่าเขากลับมาพัวพันกับเรื่องของพวก “ผีดิบ” อีกแล้ว ในตอนแรก ดีแลน พยายามจะปฏิเสธไม่รับทำคดีนี้ แต่เมื่อมาร์คัส (แซม ฮันติงตัน) เพื่อนซี้ของเขาถูกฆ่าตายและกลับมาในร่างของซอมบี้ พระเอกของเราก็จำยอมต้องออกโรงเสียแล้ว ในการค้นหาคำตอบ ดีแลน ได้เผชิญหน้ากับเพื่อนเก่าและศัตรูเก่าของเขา กาเบรียล ผู้นำฝูงมนุษย์หมาป่า (ปีเตอร์ สตอร์แมร์) ยังคงนับถือดีแลน แต่ก็เกลี้ยกล่อมให้เขา “เกษียณอยู่อย่างเดิม” วาร์กัส ผู้นำเผ่าพันธุ์แวมไพร์ (เทย์ ดิ๊กส์) ยิ่งไม่พอใจกับการกลับคืนสู่วงการของดีแลนเข้าไปใหญ่ และเขาก็บอกถึงความไม่พอใจนี้ให้ดีแลนได้รับรู้ด้วยการส่งสมุนแวมไพร์ไปเก็บเขาก่อนที่เขาจะทันได้ขัดขวางแผนการแวมไพร์ยึดครองโลกของวาร์กัส บัดนี้ ดีแลน, มาร์คัส และอลิซาเบธ จะต้องแข่งกับเวลาเพื่อตามหาวัตถุโบราณแห่งความชั่วร้ายเหลือคณาที่อาจทำลายสมดุลระหว่างโลกทั้งสอง (โลกมนุษย์และโลกของเหล่าผีดิบ) และปลดปล่อยนรกสู่โลกมนุษย์…และนิวออร์ลีนส์ก็เป็นได้

Complete name : [MINI-HD]_Dylan.Dog.Dead.of.Night.2010.1080p.BrRip.x264.One2loadup.com.mkv
Format : Matroska
Format version : Version 4 / Version 2
File size : 4.63 GiB
Duration : 1 h 47 min
Overall bit rate mode : Variable
Overall bit rate : 6 153 kb/s
Movie name : [MINI-HD]_Dylan.Dog.Dead.of.Night.2010.1080p.BrRip.x264.One2loadup.com
Encoded date : UTC 2017-11-28 22:19:38
Writing application : mkvmerge v6.9.1 (‘Blue Panther’) 32bit built on Apr 18 2014 18:15:44
Writing library : libebml v1.3.0 + libmatroska v1.4.1

Video
ID : 1
Format : AVC
Format/Info : Advanced Video Codec
Format profile : [email protected]
Format settings, CABAC : Yes
Format settings, RefFrames : 3 frames
Codec ID : V_MPEG4/ISO/AVC
Duration : 1 h 47 min
Bit rate mode : Variable
Bit rate : 5 000 kb/s
Maximum bit rate : 25.0 Mb/s
Width : 1 920 pixels
Height : 1 080 pixels
Display aspect ratio : 16:9
Frame rate mode : Constant
Frame rate : 23.976 (24000/1001) FPS
Color space : YUV
Chroma subsampling : 4:2:0
Bit depth : 8 bits
Scan type : Progressive
Bits/(Pixel*Frame) : 0.101
Stream size : 3.72 GiB (80%)
Writing library : x264 core 146 r2538 121396c
Encoding settings : cabac=1 / ref=3 / deblock=1:0:0 / analyse=0x3:0x113 / me=hex / subme=7 / psy=1 / psy_rd=1.00:0.00 / mixed_ref=1 / me_range=16 / chroma_me=1 / trellis=1 / 8x8dct=1 / cqm=0 / deadzone=21,11 / fast_pskip=1 / chroma_qp_offset=-2 / threads=12 / lookahead_threads=2 / sliced_threads=0 / nr=0 / decimate=1 / interlaced=0 / bluray_compat=0 / constrained_intra=0 / bframes=3 / b_pyramid=0 / b_adapt=1 / b_bias=0 / direct=1 / weightb=1 / open_gop=0 / weightp=2 / keyint=240 / keyint_min=24 / scenecut=40 / intra_refresh=0 / rc_lookahead=40 / rc=2pass / mbtree=1 / bitrate=5000 / ratetol=1.0 / qcomp=0.60 / qpmin=0 / qpmax=69 / qpstep=4 / cplxblur=20.0 / qblur=0.5 / vbv_maxrate=25000 / vbv_bufsize=25000 / nal_hrd=vbr / filler=0 / ip_ratio=1.40 / aq=1:1.00
Language : English
Default : Yes
Forced : Yes

Audio #1
ID : 2
Format : AC-3
Format/Info : Audio Coding 3
Format settings, Endianness : Big
Codec ID : A_AC3
Duration : 1 h 47 min
Bit rate mode : Constant
Bit rate : 448 kb/s
Channel(s) : 6 channels
Channel positions : Front: L C R, Side: L R, LFE
Sampling rate : 48.0 kHz
Frame rate : 31.250 FPS (1536 SPF)
Bit depth : 16 bits
Compression mode : Lossy
Delay relative to video : 300 ms
Stream size : 345 MiB (7%)
Language : Thai
Service kind : Complete Main
Default : Yes
Forced : Yes

Audio #2
ID : 3
Format : AC-3
Format/Info : Audio Coding 3
Format settings, Endianness : Big
Codec ID : A_AC3
Duration : 1 h 47 min
Bit rate mode : Constant
Bit rate : 640 kb/s
Channel(s) : 6 channels
Channel positions : Front: L C R, Side: L R, LFE
Sampling rate : 48.0 kHz
Frame rate : 31.250 FPS (1536 SPF)
Bit depth : 16 bits
Compression mode : Lossy
Stream size : 493 MiB (10%)
Language : English
Service kind : Complete Main
Default : No
Forced : Yes

Text #1
ID : 4
Format : VobSub
Muxing mode : zlib
Codec ID : S_VOBSUB
Codec ID/Info : Picture based subtitle format used on DVDs
Language : Thai
Default : Yes
Forced : Yes

Text #2
ID : 5
Format : PGS
Muxing mode : zlib
Codec ID : S_HDMV/PGS
Codec ID/Info : Picture based subtitle format used on BDs/HD-DVDs
Language : Thai
Default : No
Forced : Yes

Text #3
ID : 6
Format : VobSub
Muxing mode : zlib
Codec ID : S_VOBSUB
Codec ID/Info : Picture based subtitle format used on DVDs
Language : Thai
Default : No
Forced : Yes

Text #4
ID : 7
Format : PGS
Muxing mode : zlib
Codec ID : S_HDMV/PGS
Codec ID/Info : Picture based subtitle format used on BDs/HD-DVDs
Language : Thai
Default : No
Forced : Yes

Text #5
ID : 8
Format : PGS
Muxing mode : zlib
Codec ID : S_HDMV/PGS
Codec ID/Info : Picture based subtitle format used on BDs/HD-DVDs
Language : English
Default : No
Forced : Yes

Text #6
ID : 9
Format : UTF-8
Codec ID : S_TEXT/UTF8
Codec ID/Info : UTF-8 Plain Text
Language : English
Default : No
Forced : Yes

 

DOWNLOAD


PART01 |||| PART02 |||| PART03 |||| PART04 |||| PART05

PART01 |||| PART02 |||| PART03 |||| PART04 |||| PART05

PART01 |||| PART02 |||| PART03 |||| PART04 |||| PART05

PART01 |||| PART02 |||| PART03 |||| PART04 |||| PART05

PART01 |||| PART02 |||| PART03 |||| PART04 |||| PART05


4 Comments
  1. The Viper
    The Viper says

    โหลดไม่ได้ครับ

    1. Admin
      Admin says

      แก้ไขเรียบร้อยฮ๊ะ

  2. Boydm Lion
    Boydm Lion says

    ทำไมแจ้งลิงค์เสียไม่ได้หรอครับ

    1. Admin
      Admin says

      แก้ไขเรียบร้อยฮ๊ะ

Leave A Reply

อีเมล์ของคุณจะไม่แสดงให้เห็น Your email address will not be published.

%d bloggers like this: