[MINI-HD] Despicable Me (2010) มิสเตอร์แสบ ร้ายเกินพิกัด [1080P] [พากย์ไทย DTS + เสียงอังกฤษ DTS] [บรรยายไทย + อังกฤษ] [เสียงไทย + ซับไทย] [PANDAFILE]

3

โหลดหนัง Despicable Me (2010) มิสเตอร์แสบ ร้ายเกินพิกัด

Despicable Me | July 9, 2010 (United States) Summary: When a criminal mastermind uses a trio of orphan girls as pawns for a grand scheme, he finds their love is profoundly changing him for the better.
Countries: United States, FranceLanguages: English

เรื่องย่อ Despicable Me (2010) มิสเตอร์แสบ ร้ายเกินพิกัด

ในชุมชนย่านชานเมืองแสนสุข ที่รายล้อมด้วยรั้วบ้านสีขาวที่มีพุ่มดอกกุหลาบสีสดสวย ที่กำลังเบ่งบาน คือที่ตั้งของบ้านหลังสีดำทะมึนที่มีสนามหญ้าสุดเหี่ยวเฉา แต่ที่บรรดาเพื่อนบ้านซึ่งอาศัยอยู่ในย่านเดียวกันไม่เคยล่วงรู้ ก็คือ ภายใต้บ้านหลังนี้ก็คือที่ซ่อนลับที่มีขนาดกว้างใหญ่ ซึ่งเราได้จะพบกับกรู (ให้เสียงโดยสตีฟ คาเรลล์) พร้อมด้วยลูกสมุนจำนวนหนึ่ง กำลังวางแผนการปล้นครั้งใหญ่ที่สุดในประวัติศาสตร์โลก กรูกำลังจะขโมยพระจันทร์ (ใช่แล้ว คุณอ่านไม่ผิด พระจันทร์!) ในภาพยนตร์ซีจีไอสามมิติเรื่องใหม่ จากยูนิเวอร์แซลที่มีชื่อเรื่องว่า Despicable Me กรูที่ชื่นชอบในทุกสิ่งที่ชั่วร้าย มีอาวุธพร้อมพรั่งทั้งลำแสงที่ทำให้ตัวหด ลำแสงทำให้ตัวแข็ง แถมยังมียานพาหนะทุกรูปแบบทั้งลุยบนบกและบินไปในอากาศ เขาจัดการกำราบทุกคนที่กล้ามายืนขวางทาง จนถึงวันที่เขาได้เผชิญหน้ากับความมุ่งมั่นตั้งใจ ของเด็กหญิงลูกกำพร้าสามคนมาร์โก้, อีดิธ และแอ็กเนส ที่ได้พบเขา และมองเห็นบางสิ่งที่ไม่มีใครเคยเห็นมาก่อน นั่นก็คือ ความเป็นพ่อ

Complete name : [MINI-HD]_Despicable.Me.2010.1080p.DTS.x264.One2loadup.com.mkv
Format : Matroska
Format version : Version 4 / Version 2
File size : 3.08 GiB
Duration : 1 h 34 min
Overall bit rate : 4 655 kb/s
Encoded date : UTC 2016-11-29 14:39:12 / UTC 2016-11-29T13:56:32Z
Writing application : mkvmerge v8.3.0 (‘Over the Horizon’) 64bit
Writing library : libebml v1.3.1 + libmatroska v1.4.2 / Lavf55.12.0

Video
ID : 1
Format : AVC
Format/Info : Advanced Video Codec
Format profile : [email protected]
Format settings, CABAC : Yes
Format settings, RefFrames : 4 frames
Codec ID : V_MPEG4/ISO/AVC
Bit rate : 2 286 kb/s
Width : 1 920 pixels
Height : 1 040 pixels
Display aspect ratio : 1.85:1
Frame rate mode : Variable
Color space : YUV
Chroma subsampling : 4:2:0
Bit depth : 8 bits
Scan type : Progressive
Writing library : x264 core 142 r2479 dd79a61
Encoding settings : cabac=1 / ref=1 / deblock=1:0:0 / analyse=0x1:0x111 / me=hex / subme=2 / psy=1 / psy_rd=1.00:0.00 / mixed_ref=0 / me_range=16 / chroma_me=1 / trellis=0 / 8x8dct=0 / cqm=0 / deadzone=21,11 / fast_pskip=1 / chroma_qp_offset=0 / threads=6 / lookahead_threads=2 / sliced_threads=0 / nr=0 / decimate=1 / interlaced=0 / bluray_compat=0 / constrained_intra=0 / bframes=3 / b_pyramid=2 / b_adapt=1 / b_bias=0 / direct=1 / weightb=1 / open_gop=0 / weightp=1 / keyint=240 / keyint_min=24 / scenecut=40 / intra_refresh=0 / rc_lookahead=10 / rc=crf / mbtree=1 / crf=23.0 / qcomp=0.60 / qpmin=0 / qpmax=69 / qpstep=4 / vbv_maxrate=20000 / vbv_bufsize=25000 / crf_max=0.0 / nal_hrd=none / filler=0 / ip_ratio=1.40 / aq=1:1.00
Language : Thai
Default : Yes
Forced : Yes
Color range : Limited
Color primaries : BT.709
Transfer characteristics : BT.709
Matrix coefficients : BT.709
Statistics Tags Issue : mkvmerge v8.3.0 (‘Over the Horizon’) 64bit 2016-11-29 14:39:12 / mkvmerge v8.3.0 (‘Over the Horizon’) 64bit 2016-11-29 14:39:12 / UTC 2016-11-29T13:56:32Z
FromStats_BitRate : 2359658
FromStats_Duration : 01:34:41.652000000
FromStats_FrameCount : 136223
FromStats_StreamSize : 1675844792

Audio #1
ID : 2
Format : DTS
Format/Info : Digital Theater Systems
Mode : 16
Format settings, Endianness : Big
Codec ID : A_DTS
Duration : 1 h 34 min
Bit rate mode : Constant
Bit rate : 1 509 kb/s
Channel(s) : 6 channels
Channel positions : Front: L C R, Side: L R, LFE
Sampling rate : 48.0 kHz
Frame rate : 93.750 FPS (512 SPF)
Bit depth : 24 bits
Compression mode : Lossy
Stream size : 1 022 MiB (32%)
Title : Surround
Language : English
Default : No
Forced : No
Statistics Tags Issue : mkvmerge v8.3.0 (‘Over the Horizon’) 64bit 2016-11-29 14:39:12 / mkvmerge v8.3.0 (‘Over the Horizon’) 64bit 2016-11-29 14:39:12 / UTC 2016-11-29T13:56:32Z
FromStats_BitRate : 1509000
FromStats_Duration : 01:34:41.632000000
FromStats_FrameCount : 532653
FromStats_StreamSize : 1071697836

Audio #2
ID : 3
Format : DTS
Format/Info : Digital Theater Systems
Mode : 16
Format settings, Endianness : Big
Codec ID : A_DTS
Duration : 1 h 34 min
Bit rate mode : Constant
Bit rate : 768 kb/s
Channel(s) : 6 channels
Channel positions : Front: L C R, Side: L R, LFE
Sampling rate : 48.0 kHz
Frame rate : 93.750 FPS (512 SPF)
Bit depth : 24 bits
Compression mode : Lossy
Stream size : 520 MiB (16%)
Title : Surround
Language : Thai
Default : Yes
Forced : Yes
Statistics Tags Issue : mkvmerge v8.3.0 (‘Over the Horizon’) 64bit 2016-11-29 14:39:12 / mkvmerge v8.3.0 (‘Over the Horizon’) 64bit 2016-11-29 14:39:12 / UTC 2016-11-29T13:56:32Z
FromStats_BitRate : 768000
FromStats_Duration : 01:34:41.632000000
FromStats_FrameCount : 532653
FromStats_StreamSize : 545436672

Text #1
ID : 4
Format : PGS
Muxing mode : zlib
Codec ID : S_HDMV/PGS
Codec ID/Info : Picture based subtitle format used on BDs/HD-DVDs
Language : Thai
Default : No
Forced : Yes
Statistics Tags Issue : mkvmerge v8.3.0 (‘Over the Horizon’) 64bit 2016-11-29 14:39:12 / mkvmerge v8.3.0 (‘Over the Horizon’) 64bit 2016-11-29 14:39:12 / UTC 2016-11-29T13:56:32Z
FromStats_BitRate : 6039
FromStats_Duration : 01:29:01.293000000
FromStats_FrameCount : 1884
FromStats_StreamSize : 4032615

Text #2
ID : 5
Format : PGS
Muxing mode : zlib
Codec ID : S_HDMV/PGS
Codec ID/Info : Picture based subtitle format used on BDs/HD-DVDs
Language : English
Default : No
Forced : No
Statistics Tags Issue : mkvmerge v8.3.0 (‘Over the Horizon’) 64bit 2016-11-29 14:39:12 / mkvmerge v8.3.0 (‘Over the Horizon’) 64bit 2016-11-29 14:39:12 / UTC 2016-11-29T13:56:32Z
FromStats_BitRate : 9978
FromStats_Duration : 01:30:15.409000000
FromStats_FrameCount : 2378
FromStats_StreamSize : 6754484

Text #3
ID : 6
Format : PGS
Muxing mode : zlib
Codec ID : S_HDMV/PGS
Codec ID/Info : Picture based subtitle format used on BDs/HD-DVDs
Language : Thai
Default : Yes
Forced : Yes
Statistics Tags Issue : mkvmerge v8.3.0 (‘Over the Horizon’) 64bit 2016-11-29 14:39:12 / mkvmerge v8.3.0 (‘Over the Horizon’) 64bit 2016-11-29 14:39:12 / UTC 2016-11-29T13:56:32Z
FromStats_BitRate : 274
FromStats_Duration : 01:14:03.980000000
FromStats_FrameCount : 82
FromStats_StreamSize : 152378

Menu
00:00:00.000 : :Chapter 1
00:03:22.529 : :Chapter 2
00:06:32.010 : :Chapter 3
00:12:05.218 : :Chapter 4
00:13:50.615 : :Chapter 5
00:18:38.945 : :Chapter 6
00:23:06.170 : :Chapter 7
00:25:56.340 : :Chapter 8
00:30:40.958 : :Chapter 9
00:34:48.872 : :Chapter 10
00:39:42.373 : :Chapter 11
00:43:38.484 : :Chapter 12
00:48:19.307 : :Chapter 13
00:52:52.621 : :Chapter 14
00:56:46.230 : :Chapter 15
01:02:07.342 : :Chapter 16
01:09:23.987 : :Chapter 17
01:16:24.824 : :Chapter 18
01:22:41.700 : :Chapter 19
01:27:35.494 : :Chapter 20

DOWNLOAD


PART01 |||| PART02 |||| PART03

PART01 |||| PART02 |||| PART03

PART01 |||| PART02 |||| PART03

PART01 |||| PART02 |||| PART03

PART01 |||| PART02 |||| PART03


3 Comments
  1. pornsak says

    sound not supported for smart TV, LTC.

    1. Admin
      Admin says

      What’s the problem?

  2. SixHeart
    SixHeart says

    ไฟล vip โหลดไม่ได้คับ

Leave A Reply

อีเมล์ของคุณจะไม่แสดงให้เห็น Your email address will not be published.

%d bloggers like this: