[MINI-Super HQ] Captain Underpants: The First Epic Movie (2017) กัปตันกางเกงใน [1080P] [พากย์ไทย 5.1 + เสียงอังกฤษ DTS] [บรรยายไทย + อังกฤษ] [เสียงไทย + ซับไทย] [PANDAFILE]

3

โหลดหนัง Captain Underpants: The First Epic Movie (2017) กัปตันกางเกงใน 

Captain Underpants: The First Epic Movie | June 2, 2017 (United States) Summary: Two overly imaginative pranksters named George and Harold hypnotize their principal into thinking he's a ridiculously enthusiastic, incredibly dimwitted superhero named Captain Underpants.
Countries: United StatesLanguages: English, German

เรื่องย่อ Captain Underpants: The First Epic Movie (2017) กัปตันกางเกงใน

เรื่องราวของครูใหญ่ที่โดนเด็กแสบ 2 คนคอยกลั่นแกล้งสารพัดในโรงเรียน จนเขาตัดสินใจกักบริเวณเด็กทั้งสองในห้องทำงานตัวเอง เรื่องที่ไม่คาดคิดก็เกิดขึ้น เมื่อเด็กแสบทั้งสองดันเล่นสะกดจิตครูใหญ่ให้กลายเป็นซุปเปอร์ฮีโร่กางเกงใน เรื่องเล่นๆจึงกลายเป็นปัญหาโลกแตก เมื่อครูใหญ่คิดว่าตัวเองเป็นฮีโร่จริงๆ เด็กแสบทั้งสองจึงต้องทำให้ครูใหญ่กลับมาเป็นเหมือนเดิมให้ได้

Complete name : [MINI Super-HQ]_Captain.Underpants.The.First.Epic.Movie.2017.1080p.BrRip.DTS.x264.One2loadup.com.mkv
Format : Matroska
Format version : Version 4 / Version 2
File size : 3.92 GiB
Duration : 1 h 28 min
Overall bit rate : 6 325 kb/s
Movie name : [MINI Super-HQ]_Captain.Underpants.The.First.Epic.Movie.2017.1080p.BrRip.DTS.x264.One2loadup.com
Encoded date : UTC 2010-02-22 21:41:31
Writing application : mkvmerge v5.9.0 (‘On The Loose’) built on Dec 9 2012 15:37:01
Writing library : libebml v1.3.0 + libmatroska v1.4.0

Video
ID : 1
Format : AVC
Format/Info : Advanced Video Codec
Format profile : [email protected]
Format settings, CABAC : Yes
Format settings, RefFrames : 4 frames
Codec ID : V_MPEG4/ISO/AVC
Duration : 1 h 28 min
Bit rate : 4 950 kb/s
Width : 1 920 pixels
Height : 1 036 pixels
Display aspect ratio : 1.85:1
Frame rate mode : Constant
Frame rate : 23.976 FPS
Color space : YUV
Chroma subsampling : 4:2:0
Bit depth : 8 bits
Scan type : Progressive
Bits/(Pixel*Frame) : 0.104
Stream size : 3.09 GiB (79%)
Title : [MINI Super-HQ]_Captain.Underpants.The.First.Epic.Movie.2017.1080p.BrRip.DTS.x264.One2loadup.com
Writing library : x264 core 130 r2273 b3065e6
Encoding settings : cabac=1 / ref=3 / deblock=1:0:0 / analyse=0x3:0x113 / me=umh / subme=11 / psy=1 / psy_rd=1.00:0.00 / mixed_ref=1 / me_range=48 / chroma_me=1 / trellis=2 / 8x8dct=1 / cqm=0 / deadzone=21,11 / fast_pskip=1 / chroma_qp_offset=-2 / threads=10 / lookahead_threads=1 / sliced_threads=0 / nr=0 / decimate=1 / interlaced=0 / bluray_compat=0 / constrained_intra=0 / bframes=3 / b_pyramid=2 / b_adapt=1 / b_bias=0 / direct=1 / weightb=1 / open_gop=0 / weightp=2 / keyint=240 / keyint_min=24 / scenecut=40 / intra_refresh=0 / rc_lookahead=40 / rc=2pass / mbtree=1 / bitrate=4950 / ratetol=1.0 / qcomp=0.60 / qpmin=0 / qpmax=69 / qpstep=4 / cplxblur=20.0 / qblur=0.5 / ip_ratio=1.40 / aq=1:1.00
Language : English
Default : Yes
Forced : No
Color range : Limited
Color primaries : BT.709
Transfer characteristics : BT.709
Matrix coefficients : BT.709

Audio #1
ID : 2
Format : AC-3
Format/Info : Audio Coding 3
Format settings, Endianness : Big
Codec ID : A_AC3
Duration : 1 h 28 min
Bit rate mode : Constant
Bit rate : 448 kb/s
Channel(s) : 6 channels
Channel positions : Front: L C R, Side: L R, LFE
Sampling rate : 48.0 kHz
Frame rate : 31.250 FPS (1536 SPF)
Bit depth : 16 bits
Compression mode : Lossy
Stream size : 284 MiB (7%)
Title : Thai BluRay Master
Language : Thai
Service kind : Complete Main
Default : Yes
Forced : Yes

Audio #2
ID : 3
Format : DTS
Format/Info : Digital Theater Systems
Mode : 16
Format settings, Endianness : Big
Codec ID : A_DTS
Duration : 1 h 28 min
Bit rate mode : Constant
Bit rate : 755 kb/s
Channel(s) : 6 channels
Channel positions : Front: L C R, Side: L R, LFE
Sampling rate : 48.0 kHz
Frame rate : 93.750 FPS (512 SPF)
Bit depth : 24 bits
Compression mode : Lossy
Stream size : 479 MiB (12%)
Title : English DTS
Language : English
Default : No
Forced : No

Text #1
ID : 4
Format : VobSub
Codec ID : S_VOBSUB
Codec ID/Info : Picture based subtitle format used on DVDs
Title : Thai 480p
Language : Thai
Default : No
Forced : No

Text #2
ID : 5
Format : VobSub
Codec ID : S_VOBSUB
Codec ID/Info : Picture based subtitle format used on DVDs
Title : Thai 720p
Language : Thai
Default : No
Forced : No

Text #3
ID : 6
Format : VobSub
Codec ID : S_VOBSUB
Codec ID/Info : Picture based subtitle format used on DVDs
Title : Thai 1080p
Language : Thai
Default : Yes
Forced : Yes

Text #4
ID : 7
Format : VobSub
Codec ID : S_VOBSUB
Codec ID/Info : Picture based subtitle format used on DVDs
Title : Thai 1080p Yellow
Language : Thai
Default : No
Forced : No

Text #5
ID : 8
Format : VobSub
Codec ID : S_VOBSUB
Codec ID/Info : Picture based subtitle format used on DVDs
Title : Thai 1080p BIG
Language : Thai
Default : No
Forced : No

Text #6
ID : 9
Format : PGS
Codec ID : S_HDMV/PGS
Codec ID/Info : Picture based subtitle format used on BDs/HD-DVDs
Title : Thai PGS BluRay Master
Language : Thai
Default : No
Forced : No

Text #7
ID : 10
Format : PGS
Codec ID : S_HDMV/PGS
Codec ID/Info : Picture based subtitle format used on BDs/HD-DVDs
Title : Thai PGS In
Language : Thai
Default : No
Forced : No

Text #8
ID : 11
Format : PGS
Codec ID : S_HDMV/PGS
Codec ID/Info : Picture based subtitle format used on BDs/HD-DVDs
Title : English
Language : English
Default : No
Forced : No

Menu
00:00:00.000 : en:Chapter 1
00:03:54.376 : en:Chapter 2
00:06:58.936 : en:Chapter 3
00:10:08.458 : en:Chapter 4
00:12:58.670 : en:Chapter 5
00:15:08.675 : en:Chapter 6
00:17:44.998 : en:Chapter 7
00:20:42.800 : en:Chapter 8
00:23:45.274 : en:Chapter 9
00:25:44.685 : en:Chapter 10
00:29:26.282 : en:Chapter 11
00:33:55.676 : en:Chapter 12
00:38:24.194 : en:Chapter 13
00:42:10.211 : en:Chapter 14
00:46:12.078 : en:Chapter 15
00:52:17.818 : en:Chapter 16
00:55:02.858 : en:Chapter 17
00:57:37.638 : en:Chapter 18
01:00:57.463 : en:Chapter 19
01:04:30.133 : en:Chapter 20
01:08:24.951 : en:Chapter 21
01:11:42.107 : en:Chapter 22
01:15:44.390 : en:Chapter 23
01:19:02.964 : en:Chapter 24

 

 

DOWNLOAD


PART01 |||| PART02 |||| PART03 |||| PART04

PART01 |||| PART02 |||| PART03 |||| PART04

PART01 |||| PART02 |||| PART03 |||| PART04

PART01 |||| PART02 |||| PART03 |||| PART04

PART01 |||| PART02 |||| PART03 |||| PART04


3 Comments
  1. VNPlayer Channel
    VNPlayer Channel says

    สุดยอดไปเลย ขอบคุณครับ

    1. VNPlayer Channel
      VNPlayer Channel says

      โหลดไม่ได้ครับ link เสียหมดแล้ว T_T

      1. Admin
        Admin says

        แก้ไขเรียบร้อยฮ๊ะ

Leave A Reply

อีเมล์ของคุณจะไม่แสดงให้เห็น Your email address will not be published.

%d bloggers like this: