[MINI Super-HQ] Bring It On: Worldwide #Cheersmack (2017) [1080P] [พากย์อังกฤษ DTS] [บรรยายไทย + อังกฤษ] [Soundtrack บรรยายไทย] [เสียงอังกฤษ + ซับไทย] [PANDAFILE]

2

โหลดหนัง Bring It On: Worldwide #Cheersmack (2017)

Bring It On: Worldwide #Cheersmack | August 29, 2017 (United States) Summary: This "Bring It On" installment focuses on The Rebels as they accept a virtual cheerleading battle against The Truth.
Countries: United StatesLanguages: English

เรื่องย่อ Bring It On: Worldwide #Cheersmack (2017)

Vivica A. Fox makes her Bring It On debut as Cheer Goddess, the Internet s most popular “Cheer-lebrity.” When Destiny (Prosperi) captain of three-time national champions “The Rebels,” is challenged to a global cheer showdown by an edgy new team called “The Truth,”
the Cheer Goddess organizes a virtual battle for squads from all around the world. It seems like the whole world wants to take down Destiny and her team and they just might succeed, unless Destiny can rise to the challenge, set her ego aside and figure out who her real friends are.!!!

Complete name : [MINI Super-HQ]_Bring.It.On.Worldwide.Cheersmack.2017.1080p.BrRip.DTS.x264.One2loadup.com.mkv
Format : Matroska
Format version : Version 4 / Version 2
File size : 3.88 GiB
Duration : 1 h 35 min
Overall bit rate : 5 826 kb/s
Movie name : [MINI Super-HQ]_Bring.It.On.Worldwide.Cheersmack.2017.1080p.BrRip.DTS.x264.One2loadup.com
Encoded date : UTC 2010-02-22 21:41:31
Writing application : mkvmerge v5.9.0 (‘On The Loose’) built on Dec 9 2012 15:37:01
Writing library : libebml v1.3.0 + libmatroska v1.4.0

Video
ID : 1
Format : AVC
Format/Info : Advanced Video Codec
Format profile : [email protected]
Format settings, CABAC : Yes
Format settings, RefFrames : 4 frames
Codec ID : V_MPEG4/ISO/AVC
Duration : 1 h 35 min
Bit rate : 4 948 kb/s
Width : 1 920 pixels
Height : 1 080 pixels
Display aspect ratio : 16:9
Frame rate mode : Constant
Frame rate : 23.976 FPS
Color space : YUV
Chroma subsampling : 4:2:0
Bit depth : 8 bits
Scan type : Progressive
Bits/(Pixel*Frame) : 0.100
Stream size : 3.30 GiB (85%)
Title : [MINI Super-HQ]_Bring.It.On.Worldwide.Cheersmack.2017.1080p.BrRip.DTS.x264.One2loadup.com
Writing library : x264 core 130 r2273 b3065e6
Encoding settings : cabac=1 / ref=3 / deblock=1:0:0 / analyse=0x3:0x113 / me=umh / subme=11 / psy=1 / psy_rd=1.00:0.00 / mixed_ref=1 / me_range=48 / chroma_me=1 / trellis=2 / 8x8dct=1 / cqm=0 / deadzone=21,11 / fast_pskip=1 / chroma_qp_offset=-2 / threads=10 / lookahead_threads=1 / sliced_threads=0 / nr=0 / decimate=1 / interlaced=0 / bluray_compat=0 / constrained_intra=0 / bframes=3 / b_pyramid=2 / b_adapt=1 / b_bias=0 / direct=1 / weightb=1 / open_gop=0 / weightp=2 / keyint=240 / keyint_min=24 / scenecut=40 / intra_refresh=0 / rc_lookahead=40 / rc=2pass / mbtree=1 / bitrate=4948 / ratetol=1.0 / qcomp=0.60 / qpmin=0 / qpmax=69 / qpstep=4 / cplxblur=20.0 / qblur=0.5 / ip_ratio=1.40 / aq=1:1.00
Language : English
Default : Yes
Forced : No
Color range : Limited
Color primaries : BT.709
Transfer characteristics : BT.709
Matrix coefficients : BT.709

Audio
ID : 2
Format : DTS
Format/Info : Digital Theater Systems
Mode : 16
Format settings, Endianness : Big
Codec ID : A_DTS
Duration : 1 h 35 min
Bit rate mode : Constant
Bit rate : 755 kb/s
Channel(s) : 6 channels
Channel positions : Front: L C R, Side: L R, LFE
Sampling rate : 48.0 kHz
Frame rate : 93.750 FPS (512 SPF)
Bit depth : 24 bits
Compression mode : Lossy
Stream size : 514 MiB (13%)
Title : English DTS
Language : English
Default : Yes
Forced : No

Text #1
ID : 3
Format : VobSub
Codec ID : S_VOBSUB
Codec ID/Info : Picture based subtitle format used on DVDs
Language : Thai
Default : Yes
Forced : Yes

Text #2
ID : 4
Format : VobSub
Codec ID : S_VOBSUB
Codec ID/Info : Picture based subtitle format used on DVDs
Title : Thai 480p
Language : Thai
Default : No
Forced : No

Text #3
ID : 5
Format : VobSub
Codec ID : S_VOBSUB
Codec ID/Info : Picture based subtitle format used on DVDs
Title : Thai 720p
Language : Thai
Default : No
Forced : No

Text #4
ID : 6
Format : VobSub
Codec ID : S_VOBSUB
Codec ID/Info : Picture based subtitle format used on DVDs
Title : Thai 1080p
Language : Thai
Default : No
Forced : No

Text #5
ID : 7
Format : VobSub
Codec ID : S_VOBSUB
Codec ID/Info : Picture based subtitle format used on DVDs
Title : Thai 1080p Yellow
Language : Thai
Default : No
Forced : No

Text #6
ID : 8
Format : VobSub
Codec ID : S_VOBSUB
Codec ID/Info : Picture based subtitle format used on DVDs
Title : Thai 1080p BIG
Language : Thai
Default : No
Forced : No

Text #7
ID : 9
Format : PGS
Codec ID : S_HDMV/PGS
Codec ID/Info : Picture based subtitle format used on BDs/HD-DVDs
Title : Thai PGS BluRay Master
Language : Thai
Default : No
Forced : No

Text #8
ID : 10
Format : PGS
Codec ID : S_HDMV/PGS
Codec ID/Info : Picture based subtitle format used on BDs/HD-DVDs
Title : English
Language : English
Default : No
Forced : No

Menu
00:00:00.000 : en:Chapter 1
00:04:34.774 : en:Chapter 2
00:07:27.613 : en:Chapter 3
00:12:17.319 : en:Chapter 4
00:19:52.649 : en:Chapter 5
00:24:07.696 : en:Chapter 6
00:27:50.126 : en:Chapter 7
00:32:26.861 : en:Chapter 8
00:38:10.287 : en:Chapter 9
00:41:42.625 : en:Chapter 10
00:44:03.098 : en:Chapter 11
00:49:17.579 : en:Chapter 12
00:56:00.440 : en:Chapter 13
01:00:40.845 : en:Chapter 14
01:04:45.923 : en:Chapter 15
01:08:54.421 : en:Chapter 16
01:12:45.736 : en:Chapter 17
01:18:22.280 : en:Chapter 18
01:23:33.842 : en:Chapter 19
01:30:38.141 : en:Chapter 20

DOWNLOAD


PART01 |||| PART02 |||| PART03 |||| PART04

PART01 |||| PART02 |||| PART03 |||| PART04

PART01 |||| PART02 |||| PART03 |||| PART04

PART01 |||| PART02 |||| PART03 |||| PART04

PART01 |||| PART02 |||| PART03 |||| PART04


2 Comments
  1. Kaka Yuyu
    Kaka Yuyu says

    โหลดไม่ได้ครับ

    1. Admin
      Admin says

      แก้ไขเรียบร้อยฮ๊ะ

Leave A Reply

อีเมล์ของคุณจะไม่แสดงให้เห็น Your email address will not be published.

%d bloggers like this: