[MINI Super-HQ] Bleeding Steel (2017) โคตรใหญ่ฟัดเหล็ก [1080p] [พากย์ไทย 5.1 + เสียงอังกฤษ DTS] [บรรยายไทย + อังกฤษ] [เสียงไทย + ซับไทย] [DOSYAUPLOAD]

0

โหลดหนัง Bleeding Steel (2017) โคตรใหญ่ฟัดเหล็ก

Bleeding Steel (2017) 1h 49min | Action, Sci-Fi, Thriller | 22 December 2017 (UK) Summary: A Special Forces Agent is assigned to protect a scientist and his creation from a sinister gang.
Countries: China, Hong KongLanguages: English, Mandarin

เรื่องย่อ Bleeding Steel (2017) โคตรใหญ่ฟัดเหล็ก

ดร. เจมส์ฉีดยาตัวเองด้วยสารเคมีที่เก็บไว้ด้วยหัวใจเชิงกลที่ถูกต้องก่อนที่ตำรวจจะออกไปคุ้มกันเขา พวกเขาถูกปล้นโดยคนที่มีเกราะสีดำแปลกใหม่และอาวุธไฮเทคที่นำโดยชายร่างใหญ่ที่ชื่ออังเดรและเกือบทั้งหมดในทีมถูกสังหาร ขณะที่โรงพยาบาล Xixi เสียชีวิตที่โรงพยาบาล ก่อนที่อังเดรสามารถเรียกร้องตัว ดร. เจมส์ได้ด้วยตัวเองหลินดงก็พยายามจะกักตัวเขาไว้กับถังน้ำมันโดยใช้รถของเขา เมื่ออังเดรพิสูจน์ได้อย่างชัดเจนว่าทนต่อแรงกระแทกของรถและกระสุนหลินดู่ยิงเขา Lin Dong ยิงถังน้ำมันแทนทำให้เกิดการระเบิดครั้งใหญ่ ทั้งหลินดงและอังเดรได้แสดงให้เห็นว่ารอดชีวิตได้ในภายหลังแม้ว่าอาการบาดเจ็บของอังเดรทำให้เขากลายเป็นหุ่นยนต์

Complete name : [MINI Super-HQ]_Bleeding.Steel.2017.1080p.BluRay.DTS.x264.One2loadup.com.mkv
Format : Matroska
Format version : Version 4
File size : 4.60 GiB
Duration : 1 h 50 min
Overall bit rate : 5 978 kb/s
Movie name : [MINI Super-HQ]_Bleeding.Steel.2017.1080p.BluRay.DTS.x264.One2loadup.com
Encoded date : UTC 2020-01-30 01:37:23
Writing application : mkvmerge v43.0.0 (‘The Quartermaster’) 64-bit
Writing library : libebml v1.3.10 + libmatroska v1.5.2
Cover : Yes
Attachments : cover.jpg / cover

Video
ID : 1
Format : AVC
Format/Info : Advanced Video Codec
Format profile : [email protected]
Format settings : CABAC / 1 Ref Frames
Format settings, CABAC : Yes
Format settings, ReFrames : 1 frame
Format settings, GOP : M=1, N=25
Codec ID : V_MPEG4/ISO/AVC
Duration : 1 h 50 min
Bit rate mode : Constant
Bit rate : 4 000 kb/s
Width : 1 920 pixels
Height : 800 pixels
Display aspect ratio : 2.40:1
Frame rate mode : Constant
Frame rate : 29.970 (30000/1001) FPS
Color space : YUV
Chroma subsampling : 4:2:0
Bit depth : 8 bits
Scan type : Progressive
Bits/(Pixel*Frame) : 0.087
Stream size : 3.07 GiB (67%)
Title : [MINI Super-HQ]_Bleeding.Steel.2017.1080p.BluRay.DTS.x264.One2loadup.com
Language : English
Default : Yes
Forced : No

Audio #1
ID : 2
Format : AC-3
Format/Info : Audio Coding 3
Commercial name : Dolby Digital
Codec ID : A_AC3
Duration : 1 h 50 min
Bit rate mode : Constant
Bit rate : 448 kb/s
Channel(s) : 6 channels
Channel layout : L R C LFE Ls Rs
Sampling rate : 48.0 kHz
Frame rate : 31.250 FPS (1536 SPF)
Bit depth : 16 bits
Compression mode : Lossy
Stream size : 353 MiB (7%)
Title : Thai 5.1
Language : Thai
Service kind : Complete Main
Default : Yes
Forced : Yes

Audio #2
ID : 3
Format : DTS
Format/Info : Digital Theater Systems
Codec ID : A_DTS
Duration : 1 h 50 min
Bit rate mode : Constant
Bit rate : 1 509 kb/s
Channel(s) : 6 channels
Channel layout : C L R Ls Rs LFE
Sampling rate : 48.0 kHz
Frame rate : 93.750 FPS (512 SPF)
Bit depth : 24 bits
Compression mode : Lossy
Stream size : 1.16 GiB (25%)
Title : English DTS
Language : English
Default : No
Forced : No

Text #1
ID : 4
Format : PGS
Muxing mode : zlib
Codec ID : S_HDMV/PGS
Codec ID/Info : Picture based subtitle format used on BDs/HD-DVDs
Duration : 1 h 48 min
Bit rate : 12.4 kb/s
Count of elements : 2096
Stream size : 9.67 MiB (0%)
Title : Thai PGS
Language : Thai
Default : Yes
Forced : No

Text #2
ID : 5
Format : PGS
Muxing mode : zlib
Codec ID : S_HDMV/PGS
Codec ID/Info : Picture based subtitle format used on BDs/HD-DVDs
Duration : 1 h 43 min
Bit rate : 12.2 kb/s
Count of elements : 1542
Stream size : 9.04 MiB (0%)
Title : English PGS Yellow
Language : English
Default : No
Forced : No

Text #3
ID : 6
Format : PGS
Muxing mode : zlib
Codec ID : S_HDMV/PGS
Codec ID/Info : Picture based subtitle format used on BDs/HD-DVDs
Duration : 1 h 49 min
Bit rate : 13.9 kb/s
Count of elements : 1758
Stream size : 10.8 MiB (0%)
Title : English SDH PGS RED
Language : English
Default : No
Forced : No

DOWNLOAD


PART01 |||| PART02 |||| PART03 |||| PART04 |||| PART05

PART01 |||| PART02 |||| PART03 |||| PART04 |||| PART05

PART01 |||| PART02 |||| PART03 |||| PART04 |||| PART05

PART01 |||| PART02 |||| PART03 |||| PART04 |||| PART05

PART01 |||| PART02 |||| PART03 |||| PART04 |||| PART05



แจ้งหนังเสีย หรือโหลดไม่ได้ ทั้งลิ้งฟรีและ vip สามารถกดที่รูปด้านบนนี้ได้เลย

: Disable Comments
%d bloggers like this: